[Login] or [Signup]
Login
Username:
Password:
[Signup]
[Recover Account]


Poll


You must be logged in to view polls



Torrent Details For "Pyar Pyar 1993 Untouched 1080p WEB-HD AVC AAC By Sam"

Pyar Pyar 1993 Untouched 1080p WEB-HD AVC AAC By Sam

Download this torrent | Magnet Download
Health:
Seeds: 0
Leechers: 2
Completed: 13 
Last Checked: 22-07-2018 06:10:42
External Torrent
Update Stats
Download Magnet


Poster


iMDB
Title: Pyar Pyar
Year: 1993
Votes: 5
Rating: 4.6/10
Language: Hindi
Country: India
All Genres: Action, Drama, Romance
Plot Outline: Widowed Rajkumar Chauhan is an honest and diligent Income Tax Officer, who does his job without being intimidated or accepting bribes. He lives with his son, Vikram, and his mom. When College exams ends, he finds out that Vikram has failed, thrashes him soundly, and the family subsequently relocate to Bombay where Rajkumar is promoted as the Income Tax Commissioner. Rajkumar finds out that local politician, Dhansukhbhai Dharamshi, has amassed considerable wealth, organizes a raid on his palatial bungalow, recovers cash hidden in a bed mattress, as well as gold coins beneath the doghouse. An agitated Dhansukh attempts to pacify Rajkumar, by first offering him bribes and then intimidation, but it proves to be all in vain. Then Dhanshukh finds out that his college-going daughter, Dolly, has fallen in love with Vikram - and he decides to make use of this romance in order to get even with Rajkumar. Watch what happens when Vikram's birthday celebrations turn sour after Dhansukhbhai reveals ... Written by rAjOo ([email protected])


Director: Sunil R. Prasad

Cast:
Beena Banerjee as Dhansukh's sister
Kishore Anand Bhanushali as Raju - Guide
Isha Gupta as Neelima
Mushtaq Khan as Ram Sewak Gaitonde
Viju Khote as College Principal
Kiran Kumar as Rajkumar Chauhan
Sulochana Latkar as Mrs. Chauhan
Guddi Maruti as Plump College Student
Sujoy Mukherjee as Vikram 'Vicky' R. Chauhan
Yunus Parvez as Manohar


Watch-Free-HD     Download

Details
Name:Pyar Pyar 1993 Untouched 1080p WEB-HD AVC AAC By Sam
Description:
Source                      : Over Net
Format                      : MPEG-4
Format profile              : Base Media
Codec ID                    : isom (isom/iso2/avc1/mp41)
File size                   : 3.05 GiB
Duration                    : 2 h 21 min
Overall bit rate mode       : Variable
Overall bit rate            : 3 086 kb/s
Writing application         : Lavf56.40.101

Video
ID                          : 1
Format                      : AVC
Format/Info                 : Advanced Video Codec
Format profile              : [email protected]
Format settings, CABAC      : Yes
Format settings, ReFrames   : 4 frames
Codec ID                    : avc1
Codec ID/Info               : Advanced Video Coding
Duration                    : 2 h 21 min
Bit rate                    : 3 000 kb/s
Width                       : 2 034 pixels
Height                      : 1 080 pixels
Display aspect ratio        : 2.062
Frame rate mode             : Constant
Frame rate                  : 25.000 FPS
Color space                 : YUV
Chroma subsampling          : 4:2:0
Bit depth                   : 8 bits
Scan type                   : Progressive
Bits/(Pixel*Frame)          : 0.055
Stream size                 : 2.98 GiB (98%)
Writing library             : x264 core 148 r2795 aaa9aa8

Audio
ID                          : 2
Format                      : AAC
Format/Info                 : Advanced Audio Codec
Format profile              : LC
Codec ID                    : 40
Duration                    : 2 h 21 min
Duration_FirstFrame         : 59 ms
Bit rate mode               : Variable
Bit rate                    : 64.6 kb/s
Maximum bit rate            : 66.4 kb/s
Channel(s)                  : 2 channels
Channel positions           : Front: L R
Sampling rate               : 48.0 kHz
Frame rate                  : 46.875 FPS (1024 spf)
Compression mode            : Lossy
Stream size                 : 65.4 MiB (2%)
Default                     : Yes
Alternate group             : 1

Screenshots:











Give Proper Credit To Olddilli Where Ever You Release

I Seed only 12 o clock in night Remain in morning after 12 o clock



Category:Movies > Bollywood
Lang:Hindi
Total Size:3.05 GB
Info Hash:b1b61d8c5733cbc3fdadf42912fcc9e9d4135702
Added By:olddilli
Date Added:04-07-2018 17:29:24
Views:828
Hits:59

Download Torrent

Ratings:Not Yet Rated (Log in to rate it)


Tracker:
udp://tracker.coppersurfer.tk:6969/announce


File List: 


Comments

No comments still posted

Powered by 10 Hamsters v2-svn -|- Page Generated In 1.188326 secs.
-|- RSS FEED
Theme By: Nikkbu