[Login] or [Signup]
Login
Username:
Password:
[Signup]
[Recover Account]


Poll


You must be logged in to view polls



Torrent Details For "Mumbai (2018) 720p Hindi Dubbed Original WEBHD x264 AAC 1.9GB [MovCr]"

Mumbai (2018) 720p Hindi Dubbed Original WEBHD x264 AAC 1.9GB [MovCr]

Download this torrent | Magnet Download
Health:
Seeds: 5
Leechers: 0
Completed: 1,746 
Last Checked: 13-10-2018 16:52:38
External Torrent
Update Stats
Download Magnet


Poster


Watch-Free-HD     Download

Details
Name:Mumbai (2018) 720p Hindi Dubbed Original WEBHD x264 AAC 1.9GB [MovCr]
Description:
Visit Our Site  www.movcr.com

Mumbai (2018) 720p Hindi Dubbed Original WEBHD x264 AAC 1.9GB [MovCr]

 

General
Unique ID                   : 143788423257680549161497588931910290334 (0x6C2CA49BB3A2352EADFCA1F24DB1CB9E)
Complete name               : www.MovCr.com - Mumbai (2018) 720p Hindi Dubbed Original WEBHD x264 AAC 1.9GB [MovCr].mkv
Format                      : Matroska
Format version              : Version 4 / Version 2
File size                   : 1.86 GiB
Duration                    : 2 h 19 min
Overall bit rate            : 1 898 kb/s
Movie name                  : www.MovCr.com
Encoded date                : UTC 2018-07-04 15:57:06
Writing application         : mkvmerge v23.0.0 ('The Bride Said No') 64-bit
Writing library             : libebml v1.3.6 + libmatroska v1.4.9

Video
ID                          : 1
Format                      : AVC
Format/Info                 : Advanced Video Codec
Format profile              : [email protected]
Format settings, CABAC      : Yes
Format settings, ReFrames   : 3 frames
Codec ID                    : V_MPEG4/ISO/AVC
Duration                    : 2 h 19 min
Bit rate                    : 1 770 kb/s
Width                       : 1 280 pixels
Height                      : 720 pixels
Display aspect ratio        : 16:9
Frame rate mode             : Constant
Frame rate                  : 25.000 FPS
Color space                 : YUV
Chroma subsampling          : 4:2:0
Bit depth                   : 8 bits
Scan type                   : Progressive
Bits/(Pixel*Frame)          : 0.077
Stream size                 : 1.73 GiB (93%)
Title                       : www.MovCr.com
Language                    : Hindi
Default                     : Yes
Forced                      : No
Color range                 : Limited
Color primaries             : BT.709
Transfer characteristics    : BT.709
Matrix coefficients         : BT.709

Audio
ID                          : 2
Format                      : AAC
Format/Info                 : Advanced Audio Codec
Format profile              : LC
Codec ID                    : A_AAC
Duration                    : 2 h 19 min
Bit rate                    : 126 kb/s
Channel(s)                  : 2 channels
Channel positions           : Front: L R
Sampling rate               : 44.1 kHz
Frame rate                  : 43.066 FPS (1024 spf)
Compression mode            : Lossy
Stream size                 : 126 MiB (7%)
Title                       : www.MovCr.com
Language                    : Hindi
Default                     : Yes
Forced                      : No



 
 
 
 
 
 
 
 
 
Category:Movies > South Dub
Lang:Hindi
Total Size:1.86 GB
Info Hash:0777b91676fb87475f1ec552dab5eb696f386308
Added By:MAZE
Date Added:04-07-2018 17:16:15
Views:1,202
Hits:50

Download Torrent

Ratings:Not Yet Rated (Log in to rate it)


Tracker:
udp://tracker.coppersurfer.tk:6969/announce


File List: 


Comments

No comments still posted

Powered by 10 Hamsters v2-svn -|- Page Generated In 1.361025 secs.
-|- RSS FEED
Theme By: Nikkbu