[Login] or [Signup]
Login
Username:
Password:
[Signup]
[Recover Account]


Poll


You must be logged in to view polls



Torrent Details For "211 2018 1080p BluRay x264 DTS [MW]"

211 2018 1080p BluRay x264 DTS [MW]

Download this torrent | Magnet Download
Health:
Seeds: 146
Leechers: 159
Completed: 481 
Last Checked: 01-07-2018 01:45:31
External Torrent
Update Stats
Download Magnet


Poster
No poster


Watch-Free-HD     Download

Details
Name:211 2018 1080p BluRay x264 DTS [MW]
Description:

 


General
Format                                   : Matroska
Format version                           : Version 4 / Version 2
File size                                : 2.44 GiB
Duration                                 : 1 h 27 min
Overall bit rate                         : 4 010 kb/s

Video
ID                                       : 1
Format                                   : AVC
Format/Info                              : Advanced Video Codec
Format profile                           : [email protected]
Format settings                          : CABAC / 4 Ref Frames
Format settings, CABAC                   : Yes
Format settings, RefFrames               : 4 frames
Codec ID                                 : V_MPEG4/ISO/AVC
Duration                                 : 1 h 27 min
Bit rate                                 : 2 600 kb/s
Width                                    : 1 920 pixels
Height                                   : 1 040 pixels
Display aspect ratio                     : 1.85:1
Frame rate mode                          : Constant
Frame rate                               : 23.976 (24000/1001) FPS
Color space                              : YUV
Chroma subsampling                       : 4:2:0
Bit depth                                : 8 bits
Scan type                                : Progressive
Bits/(Pixel*Frame)                       : 0.054
Stream size                              : 1.52 GiB (62%)
Writing library                          : x264 core 155 r2901 7d0ff22
Default                                  : Yes
Forced                                   : No

Audio
ID                                       : 2
Format                                   : DTS
Format/Info                              : Digital Theater Systems
Codec ID                                 : A_DTS
Duration                                 : 1 h 27 min
Bit rate mode                            : Constant
Bit rate                                 : 1 509 kb/s
Channel(s)                               : 6 channels
Channel positions                        : Front: L C R, Side: L R, LFE
Sampling rate                            : 48.0 kHz
Frame rate                               : 93.750 FPS (512 SPF)
Bit depth                                : 24 bits
Compression mode                         : Lossy
Stream size                              : 940 MiB (38%)
Language                                 : English
Default                                  : Yes
Forced                                   : No

Menu
00:00:00.000                             : en:00:00:00.000
00:05:50.892                             : en:00:05:50.725
00:10:15.031                             : en:00:10:14.864
00:16:36.537                             : en:00:16:36.370
00:22:31.517                             : en:00:22:31.308
00:27:17.427                             : en:00:27:17.219
00:32:44.713                             : en:00:32:44.713
00:38:48.368                             : en:00:38:48.201
00:44:39.010                             : en:00:44:38.926
00:49:44.815                             : en:00:49:44.607
00:54:29.641                             : en:00:54:29.475
01:00:32.379                             : en:01:00:32.170
01:05:33.096                             : en:01:05:32.971
01:11:29.494                             : en:01:11:29.327
01:16:34.006                             : en:01:16:34.006
01:22:27.192                             : en:01:22:27.192


Click To Enlarge Image
 
 
 
 
 
 
 

Category:Movies > 1080P Bluray
Lang:English  English
Total Size:2.44 GB
Info Hash:7183cc65c9edac02b5982a585160c5ad63f03f0f
Added By:Freaky
Date Added:30-06-2018 11:12:16
Views:317
Hits:21

Download Torrent

Ratings:Not Yet Rated (Log in to rate it)


Tracker:
udp://tracker.coppersurfer.tk:6969/announce


File List: 


Comments

No comments still posted

Powered by 10 Hamsters v2-svn -|- Page Generated In 4.202182 secs.
-|- RSS FEED
Theme By: Nikkbu