[Login] or [Signup]
Login
Username:
Password:
[Signup]
[Recover Account]


Poll


You must be logged in to view polls



Torrent Details For "The Next Karate Kid (1994) BluRay 720p x264 [Dual Audio] [Hindi - Eng] AAC Esub -=!Katyayan!=-"

The Next Karate Kid (1994) BluRay 720p x264 [Dual Audio] [Hindi - Eng] AAC Esub -=!Katyayan!=-

Download this torrent | Magnet Download
Health:
Seeds: 0
Leechers: 3
Completed: 599 
Last Checked: 06-10-2018 03:07:44
External Torrent
Update Stats
Download Magnet


Poster


iMDB
Imdb Picture Title: The Next Karate Kid
Year: 1994
Runtime: 107 minutes
Votes: 20532
Rating: 4.4/10
Language: English
Country: USA
All Genres: Action, Drama, Family, Romance, Sport
Plot Outline: Mr. Miyagi is back and he takes a new pupil under his wing; a troubled adolescent girl.
Tagline: It's ancient wisdom against teenage spunk. 1,000 years of karate tradition is about to get a kick in the pants.
Director: Christopher Cain
Writing By: Robert Mark Kamen,Mark Lee,
Produced By: Susan Ekins,R.J. Louis,Jerry Weintraub,
Music: Bill Conti
Cast:
Pat Morita as Sgt. Kesuke Miyagi
Hilary Swank as Julie Pierce
Michael Ironside as Col. Dugan
Constance Towers as Louisa Pierce
Chris Conrad as Eric McGowen
Arsenio 'Sonny' Trinidad as Abbot
Michael Cavalieri as Ned
Walton Goggins as Charlie
Jim Ishida as Tall Monk
Rodney Kageyama as Monk
Trailers:
The Next Karate Kid


Watch-Free-HD     Download

Details
Name:The Next Karate Kid (1994) BluRay 720p x264 [Dual Audio] [Hindi - Eng] AAC Esub -=!Katyayan!=-
Description:

The Next Karate Kid (1994) BluRay 720p x264 [Dual Audio] [Hindi - Eng] AAC Esub -=!Katyayan!=-


 


Format                                   : Matroska
Format version                           : Version 4 / Version 2
File size                                : 990 MiB
Duration                                 : 1 h 47 min
Overall bit rate                         : 1 289 kb/s
Movie name                               : The Next Karate Kid (1994) BluRay 720p x264 [Dual Audio] [Hindi - Eng] AAC Esub -=!Katyayan!=-
Encoded date                             : UTC 2018-06-19 11:47:26
Writing application                      : mkvmerge v19.0.0 ('Brave Captain') 32-bit
Writing library                          : libebml v1.3.5 + libmatroska v1.4.8
Cover                                    : Yes
Attachments                              : he Next Karate Kid (1994) Cover

Video
ID                                       : 1
Format                                   : AVC
Format/Info                              : Advanced Video Codec
Format profile                           : [email protected]
Format settings                          : CABAC / 5 Ref Frames
Format settings, CABAC                   : Yes
Format settings, RefFrames               : 5 frames
Codec ID                                 : V_MPEG4/ISO/AVC
Duration                                 : 1 h 47 min
Bit rate                                 : 999 kb/s
Width                                    : 1 280 pixels
Height                                   : 696 pixels
Display aspect ratio                     : 1.85:1
Frame rate mode                          : Constant
Frame rate                               : 23.976 (24000/1001) FPS
Color space                              : YUV
Chroma subsampling                       : 4:2:0
Bit depth                                : 8 bits
Scan type                                : Progressive
Bits/(Pixel*Frame)                       : 0.047
Stream size                              : 767 MiB (77%)
Title                                    : The Next Karate Kid (1994) BluRay 720p x264 [Dual Audio] [Hindi - Eng] AAC Esub -=!Katyayan!=-
Writing library                          : x264 core 142 r2431 ac76440
Language                                 : English
Default                                  : Yes
Forced                                   : No
Color range                              : Limited
Color primaries                          : BT.709
Matrix coefficients                      : BT.709

Audio #1
ID                                       : 2
Format                                   : AAC
Format/Info                              : Advanced Audio Codec
Format profile                           : LC
Codec ID                                 : A_AAC-2
Duration                                 : 1 h 47 min
Bit rate                                 : 224 kb/s
Channel(s)                               : 2 channels
Channel positions                        : Front: L R
Sampling rate                            : 48.0 kHz
Frame rate                               : 46.875 FPS (1024 SPF)
Compression mode                         : Lossy
Delay relative to video                  : 9 ms
Stream size                              : 172 MiB (17%)
Title                                    : -=!Katyayan!=-
Language                                 : Hindi
Default                                  : Yes
Forced                                   : Yes

Audio #2
ID                                       : 3
Format                                   : AAC
Format/Info                              : Advanced Audio Codec
Format profile                           : HE-AAC / LC
Format settings                          : Explicit
Codec ID                                 : A_AAC-2
Duration                                 : 1 h 47 min
Bit rate                                 : 64.0 kb/s
Channel(s)                               : 2 channels
Channel positions                        : Front: L R
Sampling rate                            : 48.0 kHz / 24.0 kHz
Frame rate                               : 23.438 FPS (1024 SPF)
Compression mode                         : Lossy
Delay relative to video                  : 31 ms
Stream size                              : 49.1 MiB (5%)
Title                                    : -=!Katyayan!=-
Language                                 : English
Default                                  : No
Forced                                   : No

Text
ID                                       : 4
Format                                   : UTF-8
Codec ID                                 : S_TEXT/UTF8
Codec ID/Info                            : UTF-8 Plain Text
Duration                                 : 1 h 43 min
Bit rate                                 : 50 b/s
Count of elements                        : 1208
Stream size                              : 38.1 KiB (0%)
Title                                    : -=!Katyayan!=-
Language                                 : English
Default                                  : Yes
Forced                                   : Yes



 

Category:Movies > Hollywood Dub
Lang:Hindi
Total Size:990.26 MB
Info Hash:bddc221fdd06d385262265ed7fbce22fec109af8
Added By:Shrawankk
Date Added:23-06-2018 11:33:29
Views:539
Hits:54

Download Torrent

Ratings:Not Yet Rated (Log in to rate it)


Tracker:
http://tracker.dler.org:6969/announce

This Torrent also has backup trackers
URLSeedersLeechersCompleted
http://tracker.dler.org:6969/announce000
http://5.79.83.193:2710/announce00169
http://tracker.mg64.net:6881/announce000
http://mgtracker.org:6969/announce000
http://182.176.139.129:6969/announce0173


File List: 


Comments

No comments still posted

Powered by 10 Hamsters v2-svn -|- Page Generated In 0.473390 secs.
-|- RSS FEED
Theme By: Nikkbu