[Login] or [Signup]
Login
Username:
Password:
[Signup]
[Recover Account]


Poll


You must be logged in to view polls



Torrent Details For "Dwaraka (2017) Telugu 720p HDRip x264 DD5.1 - 1.3GB [MovCr]"

Dwaraka (2017) Telugu 720p HDRip x264 DD5.1 - 1.3GB [MovCr]

Download this torrent | Magnet Download
Health:
Seeds: 0
Leechers: 17
Completed: 132 
Last Checked: 13-07-2018 15:01:44
External Torrent
Update Stats
Download Magnet


Poster


iMDB
Imdb Picture Title: Dwaraka
Year: 2017
Runtime: 143 minutes
Votes: 72
Rating: 6.8/10
Language: Telugu
Country: India
All Genres: Drama, Romance
Plot Outline: A thief falls in love and this changes his life.


Director: Srinivasa Ravindra
Writing By: Lakshmi Bhoopal,Srinivasa Ravindra,
Music: Sai Karthik
Cast:
Raghu Babu as
Vijay Deverakonda as
Pooja Jhaveri as
Prabhakar as
Prudhviraj as
Prakash Raj as
Murli Sharma as
Surekha Vani as


Watch-Free-HD     Download

Details
Name:Dwaraka (2017) Telugu 720p HDRip x264 DD5.1 - 1.3GB [MovCr]
Description:
Visit  www.movcr.com

 http://www.imdb.com/title/tt6025224/

 

General
Unique ID                   : 162475075371619922766998157138452915366 (0x7A3B8FB0893FE8868DAC54FAEFF9A4A6)
Complete name               : www.MovCr.com - Dwaraka (2017) Telugu 720p HDRip x264 DD5.1 - 1.3GB [MovCr].mkv
Format                      : Matroska
Format version              : Version 4 / Version 2
File size                   : 1.30 GiB
Duration                    : 2 h 17 min
Overall bit rate            : 1 348 kb/s
Movie name                  : www.MovCr.com
Encoded date                : UTC 2018-06-21 16:21:16
Writing application         : mkvmerge v23.0.0 ('The Bride Said No') 64-bit
Writing library             : libebml v1.3.6 + libmatroska v1.4.9

Video
ID                          : 1
Format                      : AVC
Format/Info                 : Advanced Video Codec
Format profile              : [email protected]
Format settings, CABAC      : Yes
Format settings, ReFrames   : 4 frames
Codec ID                    : V_MPEG4/ISO/AVC
Duration                    : 2 h 17 min
Bit rate                    : 1 218 kb/s
Width                       : 1 280 pixels
Height                      : 544 pixels
Display aspect ratio        : 2.35:1
Frame rate mode             : Constant
Frame rate                  : 25.000 FPS
Color space                 : YUV
Chroma subsampling          : 4:2:0
Bit depth                   : 8 bits
Scan type                   : Progressive
Bits/(Pixel*Frame)          : 0.070
Stream size                 : 1.17 GiB (90%)
Title                       : www.MovCr.com
Writing library             : x264 core 155 r2901 7d0ff22
Encoding settings           : cabac=1 / ref=3 / deblock=1:0:0 / analyse=0x3:0x113 / me=hex / subme=7 / psy=1 / psy_rd=1.00:0.00 / mixed_ref=1 / me_range=16 / chroma_me=1 / trellis=1 / 8x8dct=1 / cqm=0 / deadzone=21,11 / fast_pskip=1 / chroma_qp_offset=-2 / threads=17 / lookahead_threads=2 / sliced_threads=0 / nr=0 / decimate=1 / interlaced=0 / bluray_compat=0 / constrained_intra=0 / bframes=3 / b_pyramid=2 / b_adapt=1 / b_bias=0 / direct=1 / weightb=1 / open_gop=0 / weightp=2 / keyint=250 / keyint_min=25 / scenecut=40 / intra_refresh=0 / rc_lookahead=40 / rc=2pass / mbtree=1 / bitrate=1218 / ratetol=1.0 / qcomp=0.60 / qpmin=0 / qpmax=69 / qpstep=4 / cplxblur=20.0 / qblur=0.5 / ip_ratio=1.40 / aq=1:1.00
Language                    : Telugu
Default                     : Yes
Forced                      : No

Audio
ID                          : 2
Format                      : AC-3
Format/Info                 : Audio Coding 3
Mode extension              : CM (complete main)
Format settings, Endianness : Big
Codec ID                    : A_AC3
Duration                    : 2 h 17 min
Bit rate mode               : Constant
Bit rate                    : 128 kb/s
Channel(s)                  : 6 channels
Channel positions           : Front: L C R, Side: L R, LFE
Sampling rate               : 44.1 kHz
Frame rate                  : 28.711 FPS (1536 spf)
Bit depth                   : 16 bits
Compression mode            : Lossy
Stream size                 : 126 MiB (9%)
Title                       : www.MovCr.com
Language                    : Telugu
Default                     : Yes
Forced                      : No



 
 
 
 
 
 
 
 
 
 
 
Category:Movies > Telugu
Lang:Telugu
Total Size:1.30 GB
Info Hash:a28cf34eac247e4a5d4343e2d2960171112a325b
Added By:MAZE
Date Added:21-06-2018 17:31:57
Views:775
Hits:85

Download Torrent

Ratings:Not Yet Rated (Log in to rate it)


Tracker:
udp://tracker.openbittorrent.com:80/announce

This Torrent also has backup trackers
URLSeedersLeechersCompleted
http://share.camoe.cn:8080/announce000
http://t.nyaatracker.com:80/announce000
http://asnet.pw:2710/announce000
http://tracker.tfile.co:80/announce000
http://pt.lax.mx:80/announce000


File List: 


Comments

No comments still posted

Powered by 10 Hamsters v2-svn -|- Page Generated In 2.050431 secs.
-|- RSS FEED
Theme By: Nikkbu