[Login] or [Signup]
Login
Username:
Password:
[Signup]
[Recover Account]


Poll


You must be logged in to view polls



Torrent Details For "Ek Zabardast Fight Plan (Ivan Thanthiran) (2018) 1080p Hindi Dubbed HD x264 AAC 2.1GB [MovCr]"

Ek Zabardast Fight Plan (Ivan Thanthiran) (2018) 1080p Hindi Dubbed HD x264 AAC 2.1GB [MovCr]

Download this torrent | Magnet Download
Health:
Seeds: 0
Leechers: 4
Completed:
Last Checked: 23-10-2018 11:22:34
External Torrent
Update Stats
Download Magnet


Poster


iMDB
Title: Ivan Thanthiran
Year: 2017
Votes: 22
Rating: 8.2/10
Language: Tamil
Country: India
All Genres: Action, Comedy
Plot Outline: Two engineering dropouts stumble upon the activities of a corrupt education minister owning engineering colleges and expose him. The minister wants revenge and launches a manhunt for them. The cat-and-mouse game begins.
Director: R. Kannan
Writing By: R. Kannan,
Produced By: R. Kannan,
Music: S. Thaman
Plot:

Two engineering dropouts stumble upon the activities of a corrupt education minister owning engineering colleges and expose him. The minister wants revenge and launches a manhunt for them. The cat-and-mouse game begins.


Cast:
RJ Balaji as
Madhan Bob as
Gautham Karthik as Sakthi
Mayilsamy as
Bharath Reddy as
Stunt Silva as
Shraddha Srinath as
Super Subbarayan as
Sri Vignesh as


Watch-Free-HD     Download

Details
Name:Ek Zabardast Fight Plan (Ivan Thanthiran) (2018) 1080p Hindi Dubbed HD x264 AAC 2.1GB [MovCr]
Description:
 www.movcr.com

 http://www.imdb.com/title/tt7087934/[/url]

 

General
Unique ID                   : 144489139884530561474987282522670908684 (0x6CB3989AF152179D9238430D3688450C)
Complete name               : www.MovCr.com - Ek Zabardast Fight Plan (Ivan Thanthiran) (2018) 1080p Hindi Dubbed HD x264 AAC 2.1GB [MovCr].mkv
Format                      : Matroska
Format version              : Version 4 / Version 2
File size                   : 2.13 GiB
Duration                    : 1 h 45 min
Overall bit rate            : 2 905 kb/s
Movie name                  : www.MovCr.com
Encoded date                : UTC 2018-06-18 18:47:32
Writing application         : mkvmerge v23.0.0 ('The Bride Said No') 64-bit
Writing library             : libebml v1.3.6 + libmatroska v1.4.9

Video
ID                          : 1
Format                      : AVC
Format/Info                 : Advanced Video Codec
Format profile              : [email protected]
Format settings, CABAC      : Yes
Format settings, ReFrames   : 2 frames
Codec ID                    : V_MPEG4/ISO/AVC
Duration                    : 1 h 45 min
Bit rate                    : 2 777 kb/s
Width                       : 1 920 pixels
Height                      : 1 080 pixels
Display aspect ratio        : 16:9
Frame rate mode             : Constant
Frame rate                  : 25.000 FPS
Color space                 : YUV
Chroma subsampling          : 4:2:0
Bit depth                   : 8 bits
Scan type                   : Progressive
Bits/(Pixel*Frame)          : 0.054
Stream size                 : 2.04 GiB (96%)
Title                       : www.MovCr.com
Default                     : Yes
Forced                      : No
Color range                 : Limited
Color primaries             : BT.709
Transfer characteristics    : BT.709
Matrix coefficients         : BT.709

Audio
ID                          : 2
Format                      : AAC
Format/Info                 : Advanced Audio Codec
Format profile              : LC
Codec ID                    : A_AAC
Duration                    : 1 h 45 min
Bit rate                    : 126 kb/s
Channel(s)                  : 2 channels
Channel positions           : Front: L R
Sampling rate               : 44.1 kHz
Frame rate                  : 43.066 FPS (1024 spf)
Compression mode            : Lossy
Stream size                 : 94.4 MiB (4%)
Title                       : www.MovCr.com
Default                     : Yes
Forced                      : No





 
 
 
 
 
 
 
 
 

Category:Movies > South Dub
Lang:Hindi
Total Size:2.13 GB
Info Hash:ec3d0fb64d95212faff8d8e086d39fc5649e737e
Added By:MAZE
Date Added:18-06-2018 19:52:16
Views:1,427
Hits:103

Download Torrent

Ratings:Not Yet Rated (Log in to rate it)


Tracker:
udp://tracker.openbittorrent.com:80/announce

This Torrent also has backup trackers
URLSeedersLeechersCompleted
http://share.camoe.cn:8080/announce000
http://t.nyaatracker.com:80/announce000
http://asnet.pw:2710/announce000
http://tracker.tfile.co:80/announce000
http://pt.lax.mx:80/announce000


File List: 


Comments

No comments still posted

Powered by 10 Hamsters v2-svn -|- Page Generated In 1.656126 secs.
-|- RSS FEED
Theme By: Nikkbu