[Login] or [Signup]
Login
Username:
Password:
[Signup]
[Recover Account]


Poll


You must be logged in to view polls



Torrent Details For "Power.Rangers.2017.BluRay.1080p.x264.DTS-HDMA.7.1.-.Hon3y"

Power.Rangers.2017.BluRay.1080p.x264.DTS-HDMA.7.1.-.Hon3y

Download this torrent | Magnet Download
Health:
Seeds: 0
Leechers: 10
Completed: 10,377 
Last Checked: 22-10-2018 21:41:05
External Torrent
Update Stats
Download Magnet


Poster


iMDB
Imdb Picture Title: Power Rangers
Year: 2017
Runtime: 124 minutes
Votes: 28521
Rating: 6.8/10
Language: English
Country: USA, Hong Kong, Japan, Mexico, Canada, New Zealand
All Genres: Action, Adventure, Sci-Fi
Plot Outline: A group of high-school students, who are infused with unique superpowers, harness their abilities in order to save the world.
Tagline: It's morphin time!
Director: Dean Israelite
Writing By: John Gatins,Matt Sazama,Burk Sharpless,Michele Mulroney,Kieran Mulroney,Haim Saban,Shuki Levy,
Produced By: Joel Andryc,Marty Bowen,Brian Casentini,John Gatins,Wyck Godfrey,Stephen Meinen,Brent O'Connor,Aldric La'auli Porter,Haim Saban,Allison Shearmur,Takeyuki Suzuki,
Music: Brian Tyler
Plot:

High school outcasts stumble upon an old alien ship, where they acquire superpowers and are dubbed the Power Rangers. Learning that an old enemy of the previous generation has returned to exact vegenance, the group must harness their powers and use them to work together and save the world.

- Written by cyberboy1127-249-955930

In this latest POWER RANGERS our five hero teens learn that their small town of Angel Grove - as well as the entire world - is on the verge of being completely destroyed by an alien threat and soon discover that they are the only ones who can save the planet. But to do so, they must overcome their personal 'real-life issues' and somehow join forces to save us all.

- Written by DeAlan Wilson www.ComedyE.com

A group of high-school students, who are infused with unique superpowers, harness their abilities in order to save the world.

- Written by David Rush
Cast:
Dacre Montgomery as Jason (Red Ranger)
Naomi Scott as Kimberly (Pink Ranger)
RJ Cyler as Billy (Blue Ranger)
Ludi Lin as Zack (Black Ranger)
Becky G. as Trini (Yellow Ranger)
Elizabeth Banks as Rita Repulsa
Bryan Cranston as Zordon
Bill Hader as Alpha 5
Matt Shively as Damo
Cody Kearsley as Hawkeye
Trailers:
Teaser Trailer
Trailer With Commentary
Trailer #2


Watch-Free-HD     Download

Details
Name:Power.Rangers.2017.BluRay.1080p.x264.DTS-HDMA.7.1.-.Hon3y
Description:

Source                      : BD50 @ FGT

Format                      : Matroska
Format version              : Version 4 / Version 2
File size                   : 12.3 GiB
Duration                    : 2 h 3 min
Overall bit rate            : 14.2 Mb/s

Video
ID                          : 1
Format                      : AVC
Format/Info                 : Advanced Video Codec
Format profile              : [email protected]
Format settings, CABAC      : Yes
Format settings, ReFrames   : 5 frames
Codec ID                    : V_MPEG4/ISO/AVC
Duration                    : 2 h 3 min
Bit rate                    : 10.2 Mb/s
Width                       : 1 920 pixels
Height                      : 800 pixels
Display aspect ratio        : 2.40:1
Frame rate mode             : Constant
Frame rate                  : 23.976 (24000/1001) FPS

Audio
ID                          : 2
Format                      : DTS
Format/Info                 : Digital Theater Systems
Format profile              : MA / Core
Mode                        : 16
Format settings, Endianness : Big
Codec ID                    : A_DTS
Duration                    : 2 h 3 min
Bit rate mode               : Variable / Constant
Bit rate                    : 3 840 kb/s / 1 509 kb/s
Channel(s)                  : 8 channels / 6 channels
Channel positions           : Front: L C R, Side: L R, Back: L R, LFE / Front: L C R, Side: L R, LFE
Sampling rate               : 48.0 kHz

Text #1
ID                          : 3
Format                      : PGS
Muxing mode                 : zlib
Codec ID                    : S_HDMV/PGS
Codec ID/Info               : Picture based subtitle format used on BDs/HD-DVDs
Duration                    : 1 h 55 min
Bit rate                    : 21.3 kb/s
Count of elements           : 3780
Stream size                 : 17.6 MiB (0%)
Title                       : English-PGS
Language                    : English
Default                     : Yes
Forced                      : No

Text #2
ID                          : 4
Format                      : PGS
Muxing mode                 : zlib
Codec ID                    : S_HDMV/PGS
Codec ID/Info               : Picture based subtitle format used on BDs/HD-DVDs
Duration                    : 1 h 55 min
Bit rate                    : 17.6 kb/s
Count of elements           : 3196
Stream size                 : 14.5 MiB (0%)
Title                       : Spanish-PGS
Language                    : Spanish
Default                     : No
Forced                      : No

Menu
00:00:00.000                : en:Chapter 01
00:07:00.253                : en:Chapter 02
00:13:45.241                : en:Chapter 03
00:18:57.719                : en:Chapter 04
00:25:49.589                : en:Chapter 05
00:31:17.125                : en:Chapter 06
00:38:24.760                : en:Chapter 07
00:50:49.046                : en:Chapter 08
01:00:00.221                : en:Chapter 09
01:08:09.877                : en:Chapter 10
01:17:06.747                : en:Chapter 11
01:24:41.743                : en:Chapter 12
01:30:45.022                : en:Chapter 13
01:34:18.861                : en:Chapter 14
01:44:32.933                : en:Chapter 15
01:51:46.157                : en:Chapter 16

                 
Category:Movies > 1080P Bluray
Lang:English  English
Total Size:12.36 GB
Info Hash:cc2f68e1cba8f31019f48df38c735fa81db479e8
Added By:Hon3y
Date Added:18-06-2017 17:12:21
Views:486
Hits:72

Download Torrent

Ratings:Not Yet Rated (Log in to rate it)


Tracker:
udp://tracker.coppersurfer.tk:6969/announce


File List: 


Comments

<< Previous      Next >>
1 - 2

[Report] Posted: 19-06-2017 at 03:11:01
raanathiran



Uploaded: 0.00 B
Downloaded: 0.00 B
Ratio: ---

thanks for sharing

[Report] Posted: 19-06-2017 at 17:12:19
Deluser
Deleted Account


Uploaded:
Downloaded:
Ratio: ---

please Upload in Hindi ORG 5.1



1 - 2
<< Previous      Next >>


Powered by 10 Hamsters v2-svn -|- Page Generated In 1.450318 secs.
-|- RSS FEED
Theme By: Nikkbu