[Login] or [Signup]
Login
Username:
Password:
[Signup]
[Recover Account]


Poll


You must be logged in to view polls



Torrent Details For "Nenorakam (2017) Telugu HDRip x264 MP3 700MB [MovCr]"

Nenorakam (2017) Telugu HDRip x264 MP3 700MB [MovCr]

Download this torrent | Magnet Download
Health:
Seeds: 0
Leechers: 0
Completed:
Last Checked: 11-06-2018 10:49:19
External Torrent
Update Stats
Download Magnet


Poster


iMDB
Imdb Picture Title: Nenorakam
Year: 2017
Language: Telugu
Country: India
All Genres: Action
Director: Sudershan Salendra

Cast:
Arjun Kolishetty as Lover
Sarath Kumar as
Sairam Shankar as Hero


Watch-Free-HD     Download

Details
Name:Nenorakam (2017) Telugu HDRip x264 MP3 700MB [MovCr]
Description:
Visit  www.movcr.com

 http://www.imdb.com/title/tt6745536/

 

General
Unique ID                   : 53448092800292387594798093780623341501 (0x2835BA6DE680ECE974DC426A3968B7BD)
Complete name               : www.MovCr.com- Nenorakam (2017) Telugu HDRip x264 MP3 700MB [MovCr].mkv
Format                      : Matroska
Format version              : Version 4 / Version 2
File size                   : 697 MiB
Duration                    : 2 h 0 min
Overall bit rate mode       : Variable
Overall bit rate            : 811 kb/s
Movie name                  : www.MovCr.com
Encoded date                : UTC 2018-06-11 09:40:05
Writing application         : mkvmerge v23.0.0 ('The Bride Said No') 64-bit
Writing library             : libebml v1.3.6 + libmatroska v1.4.9

Video
ID                          : 1
Format                      : AVC
Format/Info                 : Advanced Video Codec
Format profile              : [email protected]
Format settings, CABAC      : Yes
Format settings, ReFrames   : 4 frames
Codec ID                    : V_MPEG4/ISO/AVC
Duration                    : 2 h 0 min
Bit rate                    : 724 kb/s
Width                       : 720 pixels
Height                      : 304 pixels
Display aspect ratio        : 2.35:1
Frame rate mode             : Constant
Frame rate                  : 23.976 (24000/1001) FPS
Color space                 : YUV
Chroma subsampling          : 4:2:0
Bit depth                   : 8 bits
Scan type                   : Progressive
Bits/(Pixel*Frame)          : 0.138
Stream size                 : 622 MiB (89%)
Title                       : www.MovCr.com
Writing library             : x264 core 155 r2901 7d0ff22
Encoding settings           : cabac=1 / ref=3 / deblock=1:0:0 / analyse=0x3:0x113 / me=hex / subme=7 / psy=1 / psy_rd=1.00:0.00 / mixed_ref=1 / me_range=16 / chroma_me=1 / trellis=1 / 8x8dct=1 / cqm=0 / deadzone=21,11 / fast_pskip=1 / chroma_qp_offset=-2 / threads=9 / lookahead_threads=1 / sliced_threads=0 / nr=0 / decimate=1 / interlaced=0 / bluray_compat=0 / constrained_intra=0 / bframes=3 / b_pyramid=2 / b_adapt=1 / b_bias=0 / direct=1 / weightb=1 / open_gop=0 / weightp=2 / keyint=240 / keyint_min=23 / scenecut=40 / intra_refresh=0 / rc_lookahead=40 / rc=2pass / mbtree=1 / bitrate=724 / ratetol=1.0 / qcomp=0.60 / qpmin=0 / qpmax=69 / qpstep=4 / cplxblur=20.0 / qblur=0.5 / ip_ratio=1.40 / aq=1:1.00
Language                    : Telugu
Default                     : Yes
Forced                      : No

Audio
ID                          : 2
Format                      : MPEG Audio
Format version              : Version 1
Format profile              : Layer 3
Mode                        : Joint stereo
Mode extension              : MS Stereo
Codec ID                    : A_MPEG/L3
Codec ID/Hint               : MP3
Duration                    : 2 h 0 min
Bit rate mode               : Variable
Bit rate                    : 85.0 kb/s
Nominal bit rate            : 96.0 kb/s
Channel(s)                  : 2 channels
Sampling rate               : 44.1 kHz
Frame rate                  : 38.281 FPS (1152 spf)
Compression mode            : Lossy
Stream size                 : 73.0 MiB (10%)
Title                       : www.MovCr.com
Writing library             : LAME3.99r
Encoding settings           : -m j -V 4 -q 3 -lowpass 15.1 --abr 96
Language                    : Telugu
Default                     : Yes
Forced                      : No



 
 
 
 
 
 
 
 
Category:Movies > Telugu
Lang:Telugu
Total Size:696.56 MB
Info Hash:0125337de4d8e1f750f65d2ed6c478993d799d00
Added By:MAZE
Date Added:11-06-2018 10:49:19
Views:595
Hits:20

Download Torrent

Ratings:Not Yet Rated (Log in to rate it)


Tracker:
udp://tracker.openbittorrent.com:80/announce

This Torrent also has backup trackers
URLSeedersLeechersCompleted
http://share.camoe.cn:8080/announce000
http://t.nyaatracker.com:80/announce000
http://asnet.pw:2710/announce000
http://tracker.tfile.co:80/announce000
http://pt.lax.mx:80/announce000


File List: 


Comments

No comments still posted

Powered by 10 Hamsters v2-svn -|- Page Generated In 1.270119 secs.
-|- RSS FEED
Theme By: Nikkbu