[Login] or [Signup]
Login
Username:
Password:
[Signup]
[Recover Account]


Poll


You must be logged in to view polls



Torrent Details For "Zero KMS 2018 Season 01 720p HD 5.1 Hindi GOPISAHI"

Zero KMS 2018 Season 01 720p HD 5.1 Hindi GOPISAHI

Download this torrent | Magnet Download
Health:
Seeds: 0
Leechers: 8
Completed: 782 
Last Checked: 27-10-2018 13:43:39
External Torrent
Update Stats
Download Magnet


Poster
No poster


Watch-Free-HD     Download

Details
Name:Zero KMS 2018 Season 01 720p HD 5.1 Hindi GOPISAHI
Description:
 http://www.gopisahi.pw



 Format                         : Matroska
Format version                 : Version 4 / Version 2
File size                      : 987 MiB
Duration                       : 3 h 55 min
Overall bit rate               : 586 kb/s
Movie name                     : Zero KMS 2018 GOPISAHI

Video
Format                         : AVC
Codec ID                       : V_MPEG4/ISO/AVC
Duration                       : 3 h 55 min
Bit rate                       : 500 kb/s
Width                          : 1 280 pixels
Height                         : 564 pixels
Display aspect ratio           : 2.25:1
Frame rate mode                : Constant
Frame rate                     : 30.000 FPS
Color space                    : YUV
Chroma subsampling             : 4:2:0
Bit depth                      : 8 bits
Scan type                      : Progressive
Bits/(Pixel*Frame)             : 0.023
Stream size                    : 841 MiB (85%)
Title                          : GOPISAHI
Writing library                : x264 core 155 r2893 b00bcaf
Language                       : Hindi

Audio
Format                         : AAC
Duration                       : 3 h 55 min
Bit rate                       : 84.0 kb/s
Channel(s)                     : 6 channels
Channel positions              : Front: L C R, Side: L R, LFE
Sampling rate                  : 44.1 kHz
Frame rate                     : 43.066 FPS (1024 SPF)
Compression mode               : Lossy
Stream size                    : 141 MiB (14%)
Title                          : GOPISAHI
Language                       : Hindi


Category:Movies > Bollywood
Lang:Hindi
Total Size:986.85 MB
Info Hash:2feb3b3bf5d01f8dd0c7f97e4a3ab9f53e420cf9
Added By:Unknown
Date Added:05-06-2018 06:18:06
Views:1,396
Hits:196

Download Torrent

Ratings:Not Yet Rated (Log in to rate it)


Tracker:
udp://9.rarbg.com:2740/announce


File List: 


Comments

No comments still posted

Powered by 10 Hamsters v2-svn -|- Page Generated In 1.808969 secs.
-|- RSS FEED
Theme By: Nikkbu