[Login] or [Signup]
Login
Username:
Password:
[Signup]
[Recover Account]


Poll


You must be logged in to view polls



Torrent Details For "Goosebumps 2015 720p Esub BluRay 5.1 Dual Audio English Hindi GOPISAHI"

Goosebumps 2015 720p Esub BluRay 5.1 Dual Audio English Hindi GOPISAHI

Download this torrent | Magnet Download
Health:
Seeds: 1
Leechers: 31
Completed:
Last Checked: 26-10-2018 18:36:41
External Torrent
Update Stats
Download Magnet


Poster
No poster


Watch-Free-HD     Download

Details
Name:Goosebumps 2015 720p Esub BluRay 5.1 Dual Audio English Hindi GOPISAHI
Description:
 http://www.gopisahi.pw


Format                         : Matroska
Format version                 : Version 4 / Version 2
File size                      : 500 MiB
Duration                       : 1 h 43 min
Overall bit rate               : 678 kb/s
Movie name                     : Goosebumps 2015 GOPISAHI

Video
Format                         : HEVC
Codec ID                       : V_MPEGH/ISO/HEVC
Duration                       : 1 h 43 min
Bit rate                       : 495 kb/s
Width                          : 1 250 pixels
Height                         : 534 pixels
Display aspect ratio           : 2.35:1
Frame rate mode                : Constant
Frame rate                     : 23.976 (24000/1001) FPS
Color space                    : YUV
Chroma subsampling             : 4:2:0
Bit depth                      : 8 bits
Bits/(Pixel*Frame)             : 0.031
Stream size                    : 365 MiB (73%)
Title                          : GOPISAHI
Writing library                : x265 2.6:[Windows][GCC 7.2.0][64 bit] 8bit+10bit+12bit

Audio #1
Format                         : AAC
Duration                       : 1 h 43 min
Bit rate                       : 89.9 kb/s
Channel(s)                     : 6 channels
Channel positions              : Front: L C R, Side: L R, LFE
Sampling rate                  : 44.1 kHz
Frame rate                     : 43.066 FPS (1024 SPF)
Compression mode               : Lossy
Stream size                    : 66.4 MiB (13%)
Title                          : GOPISAHI
Language                       : English

Audio #2
Format                         : AAC
Duration                       : 1 h 43 min
Bit rate                       : 90.0 kb/s
Channel(s)                     : 6 channels
Channel positions              : Front: L C R, Side: L R, LFE
Sampling rate                  : 44.1 kHz
Frame rate                     : 43.066 FPS (1024 SPF)
Compression mode               : Lossy
Stream size                    : 66.5 MiB (13%)
Title                          : GOPISAHI
Language                       : Hindi

Text
Language                       : English


Category:Movies > Hollywood Dub
Lang:Hindi
Total Size:451.36 MB
Info Hash:59b9325f468fd66ded936d0653c1a3fa7c926750
Added By:Unknown
Date Added:28-05-2018 06:00:32
Views:999
Hits:208

Download Torrent

Ratings:Not Yet Rated (Log in to rate it)


Tracker:
udp://9.rarbg.com:2740/announce


File List: 


Comments

No comments still posted

Powered by 10 Hamsters v2-svn -|- Page Generated In 0.328592 secs.
-|- RSS FEED
Theme By: Nikkbu