[Login] or [Signup]
Login
Username:
Password:
[Signup]
[Recover Account]


Poll


You must be logged in to view polls



Torrent Details For "Kahaani 2 2016 Hindi Untouched 1080p WEB-DL x264 AAC Esub - Hon3y"

Kahaani 2 2016 Hindi Untouched 1080p WEB-DL x264 AAC Esub - Hon3y

Download this torrent | Magnet Download
Health:
Seeds: 0
Leechers: 7
Completed:
Last Checked: 02-09-2018 16:00:36
External Torrent
Update Stats
Download Magnet


Poster


Watch-Free-HD     Download

Details
Name:Kahaani 2 2016 Hindi Untouched 1080p WEB-DL x264 AAC Esub - Hon3y
Description:
Kahaani 2 2016 Hindi Untouched 1080p WEB-DL x264 AAC Esub - Hon3yHD

Source: OWN @ Hon3yHD

Format                      : Matroska
Format version              : Version 4 / Version 2
File size                   : 5.37 GiB
Duration                    : 2 h 7 min
Overall bit rate            : 6 011 kb/s
Movie name                  :Kahaani 2 2016- [email protected] @ Hon3yHD


Video
ID                          : 1
Format                      : AVC
Format/Info                 : Advanced Video Codec
Format profile              : [email protected]
Format settings, CABAC      : Yes
Format settings, ReFrames   : 4 frames
Codec ID                    : V_MPEG4/ISO/AVC
Duration                    : 2 h 7 min
Bit rate                    : 5 873 kb/s
Width                       : 1 920 pixels
Height                      : 1 080 pixels
Display aspect ratio        : 16:9
Frame rate mode             : Constant
Frame rate                  : 24.000 FPS

Audio
ID                          : 2
Format                      : AAC
Format/Info                 : Advanced Audio Codec
Format profile              : LC
Codec ID                    : A_AAC
Duration                    : 2 h 7 min
Bit rate                    : 192 kb/s
Channel(s)                  : 2 channels
Channel positions           : Front: L R
Sampling rate               : 48.0 kHz
Frame rate                  : 46.875 FPS (1024 spf)
Compression mode            : Lossy
Delay relative to video     : -43 ms
Stream size                 : 177 MiB (3%)
Language                    : Hindi
Default                     : Yes
Forced                      : No

Text
ID                          : 3
Format                      : UTF-8
Codec ID                    : S_TEXT/UTF8
Codec ID/Info               : UTF-8 Plain Text
Duration                    : 2 h 3 min
Bit rate                    : 50 b/s
Count of elements           : 1658
Stream size                 : 46.0 KiB (0%)
Language                    : English
Default                     : Yes
Forced                      : No

                   
Category:Movies > Bollywood
Lang:Hindi
Total Size:5.37 GB
Info Hash:63ff7b3b1b28f568f480d1f11d4ff9d9b9ba3e52
Added By:Hon3y
Date Added:15-06-2017 21:46:51
Views:343
Hits:100

Download Torrent

Ratings:Not Yet Rated (Log in to rate it)


Tracker:
udp://tracker.coppersurfer.tk:6969/announce


File List: 


Comments

No comments still posted

Powered by 10 Hamsters v2-svn -|- Page Generated In 1.460771 secs.
-|- RSS FEED
Theme By: Nikkbu