[Login] or [Signup]
Login
Username:
Password:
[Signup]
[Recover Account]


Poll


You must be logged in to view polls



Torrent Details For "Ghantaa 2016 [MARATHI] 1CD WebRip x264 AAC [TMB]"

Ghantaa 2016 [MARATHI] 1CD WebRip x264 AAC [TMB]

Download this torrent | Magnet Download
Health:
Seeds: 0
Leechers: 4
Completed:
Last Checked: 02-10-2018 13:13:34
External Torrent
Update Stats
Download Magnet


Poster


iMDB
Imdb Picture Title: Ghantaa
Year: 2016
Language: Marathi
Country: India
All Genres: Comedy
Director: Shailesh Shankar Kale
Writing By: Shailesh Shankar Kale,
Produced By: Raj Bodke,Kashmira Vishram Malankar,Rohit Shetty,
Music: Samir Saptiskar
Cast:
Amey Wagh as Raj
Aroh Velankar as Angad
Saksham Kulkarni as Umesh
Anuja Sathe Gokhale as Komal Bhabhi
Pushkar Shrotri as Digya Bhai
Kishore Kadam as Chintya Bhai
Vijay Andalkar as Salman Khan (Chintya Gang)
Abhijeet Chavan as Mahesh Kalani
Vinod Jadhav as Gajjuu Gang
Arun Kadam as Pichkya (Digya Gang)


Watch-Free-HD     Download

Details
Name:Ghantaa 2016 [MARATHI] 1CD WebRip x264 AAC [TMB]
Description:
General
Complete name : Ghantaa 2016 1CD WebRip x264 AAC [TMB].mp4
Format : MPEG-4
Format profile : Base Media / Version 2
Codec ID : mp42 (isom/iso2/avc1/mp41)
File size : 705 MiB
Duration : 1 h 47 min
Overall bit rate mode : Variable
Overall bit rate : 918 kb/s

Video
Format : AVC
Format/Info : Advanced Video Codec
Format profile : [email protected]
Format settings, CABAC : Yes
Format settings, ReFrames : 4 frames
Codec ID : avc1
Codec ID/Info : Advanced Video Coding
Duration : 1 h 47 min
Bit rate : 756 kb/s
Width : 720 pixels
Height : 308 pixels
Display aspect ratio : 2.35:1
Original display aspect rat : 2.35:1
Frame rate mode : Variable
Frame rate : 24.965 FPS
Minimum frame rate : 0.205 FPS
Maximum frame rate : 25.000 FPS
Color space : YUV
Chroma subsampling : 4:2:0
Bit depth : 8 bits
Scan type : Progressive
Bits/(Pixel*Frame) : 0.137
Stream size : 579 MiB (82%)
Writing library : x264 core 148 r2708 86b7198

Audio
Format : AAC
Format/Info : Advanced Audio Codec
Format profile : LC
Codec ID : 40
Duration : 1 h 47 min
Bit rate mode : Variable
Bit rate : 159 kb/s
Channel(s) : 2 channels
Channel positions : Front: L R
Sampling rate : 48.0 kHz
Frame rate : 46.875 FPS (1024 spf)
Compression mode : Lossy
Stream size : 122 MiB (17%)







Category:Movies > Bollywood
Lang:Hindi
Total Size:712.21 MB
Info Hash:666824826729809819d499c175c4cd8eb421cd81
Added By:Sarawan
Date Added:14-06-2017 15:04:34
Views:767
Hits:216

Download Torrent

Ratings:Not Yet Rated (Log in to rate it)


Tracker:
udp://tracker.coppersurfer.tk:6969/announce


File List: 


Comments

No comments still posted

Powered by 10 Hamsters v2-svn -|- Page Generated In 0.068992 secs.
-|- RSS FEED
Theme By: Nikkbu