[Login] or [Signup]
Login
Username:
Password:
[Signup]
[Recover Account]


Poll


You must be logged in to view polls



Torrent Details For "Motor Mitraan Di 2017 DVD-RIP Punjabi GOPI SAHI"

Motor Mitraan Di 2017 DVD-RIP Punjabi GOPI SAHI

Download this torrent | Magnet Download
Health:
Seeds: 0
Leechers: 3
Completed: 12 
Last Checked: 14-10-2018 02:13:02
External Torrent
Update Stats
Download Magnet


Poster
No poster


Watch-Free-HD     Download

Details
Name:Motor Mitraan Di 2017 DVD-RIP Punjabi GOPI SAHI
Description:


Video
ID                             : 1
Codec ID                       : V_MPEG4/ISO/AVC
Duration                       : 1 h 57 min
Bit rate                       : 799 kb/s
Width                          : 720 pixels
Height                         : 400 pixels
Display aspect ratio           : 16:9
Frame rate mode                : Constant
Frame rate                     : 23.976 (24000/1001) FPS
Color space                    : YUV
Chroma subsampling             : 4:2:0
Bit depth                      : 8 bits
Scan type                      : Progressive
Bits/(Pixel*Frame)             : 0.116
Stream size                    : 680 MiB (89%)
Writing library                : x264 core 130 r2273 b3065e6

Audio
ID                             : 2
Format                         : AAC
Codec ID                       : A_AAC
Duration                       : 1 h 57 min
Bit rate                       : 93.3 kb/s
Channel(s)                     : 2 channels
Channel positions              : Front: L R
Sampling rate                  : 44.1 kHz
Frame rate                     : 43.066 FPS (1024 spf)
Compression mode               : Lossy
Stream size                    : 78.1 MiB (10%)



Category:Movies > Punjabi
Lang:Hindi
Total Size:759.88 MB
Info Hash:c2315d19575211e0e0e6f50302e3299c3ada591f
Added By:gopisahi
Date Added:13-06-2017 16:25:10
Views:1,522
Hits:404

Download Torrent

Ratings:Not Yet Rated (Log in to rate it)


Tracker:
udp://tracker.coppersurfer.tk:6969/announce


File List: 


Comments

<< Previous      Next >>
1 - 3

[Report] Posted: 14-06-2017 at 05:19:07
RomanEmpire



Uploaded: 0.00 B
Downloaded: 0.00 B
Ratio: ---

Bambukaat Plz In HDRip DvDRip Or WebRip

[Report] Posted: 15-06-2017 at 14:59:08
Deluser
Deleted Account


Uploaded:
Downloaded:
Ratio: ---

bambukat in Hdrip Plz

[Report] Posted: 28-06-2017 at 09:08:13
AKS



Uploaded: 0.00 B
Downloaded: 0.00 B
Ratio: ---

:love

1 - 3
<< Previous      Next >>


Powered by 10 Hamsters v2-svn -|- Page Generated In 0.071265 secs.
-|- RSS FEED
Theme By: Nikkbu