[Login] or [Signup]
Login
Username:
Password:
[Signup]
[Recover Account]


Poll


You must be logged in to view polls



Torrent Details For "Hichki (2018) Hindi HDRip x264 AAC 700MB ESubs [MovCR]"

Hichki (2018) Hindi HDRip x264 AAC 700MB ESubs [MovCR]

Download this torrent | Magnet Download
Health:
Seeds: 0
Leechers: 1
Completed: 11 
Last Checked: 08-07-2018 09:24:15
External Torrent
Update Stats
Download Magnet


Poster


iMDB
Imdb Picture Title: Hichki
Year: 2018
Runtime: 116 minutes
Votes: 50
Rating: 7.5/10
Language: Hindi, English
Country: India
All Genres: Comedy, Drama
Plot Outline: Hichki presents a positive and inspiring story about a woman who turns her biggest weakness into her biggest strength.
Director: Siddharth Malhotra
Writing By: Anckur Chaudhry,Siddharth Malhotra,Ambar Hadap,Ganesh Pandit,Anckur Chaudhry,
Produced By: Aditya Chopra,Bharat Rawail,Maneesh Sharma,Sanjay Shivalkar,Aashish Singh,Amit Tomar,
Music: Jasleen Royal Hitesh Sonik
Cast:
Rani Mukerji as Naina Mathur
Supriya Pilgaonkar as
Ivan Rodrigues as Principal
Asif Basra as
Shivkumar Subramaniam as
Harsh Mayar as Aatish
Kunal Shiinde as Supporting
Suprio Bose as Senior Male Teacher
Trailers:
Hichki Trailer


Watch-Free-HD     Download

Details
Name:Hichki (2018) Hindi HDRip x264 AAC 700MB ESubs [MovCR]
Description:
Visit Our Site   www.movcr.com

Hichki (2018) Hindi HDRip x264 AAC 700MB ESubs [MovCR]

 http://www.imdb.com/title/tt6588966/

 

General
Unique ID                   : 179629955245254989193360009400090059392 (0x8723789197E2F7F2786F943120AF6280)
Complete name               : [www.MovCR.com] Hichki (2018) Hindi HDRip x264 AAC 700MB ESubs [MovCR]\www.MovCR.com - Hichki (2018) Hindi HDRip x264 AAC 700MB ESubs [MovCR].mkv
Format                      : Matroska
Format version              : Version 4 / Version 2
File size                   : 697 MiB
Duration                    : 1 h 56 min
Overall bit rate            : 837 kb/s
Movie name                  : www.MovCR.com
Encoded date                : UTC 2018-05-07 09:42:32
Writing application         : mkvmerge v22.0.0 ('At The End Of The World') 64-bit
Writing library             : libebml v1.3.5 + libmatroska v1.4.8

Video
ID                          : 1
Format                      : AVC
Format/Info                 : Advanced Video Codec
Format profile              : [email protected]
Format settings, CABAC      : Yes
Format settings, ReFrames   : 4 frames
Codec ID                    : V_MPEG4/ISO/AVC
Duration                    : 1 h 56 min
Bit rate                    : 709 kb/s
Width                       : 720 pixels
Height                      : 304 pixels
Display aspect ratio        : 2.35:1
Frame rate mode             : Constant
Frame rate                  : 23.976 (24000/1001) FPS
Color space                 : YUV
Chroma subsampling          : 4:2:0
Bit depth                   : 8 bits
Scan type                   : Progressive
Bits/(Pixel*Frame)          : 0.135
Stream size                 : 589 MiB (84%)
Title                       : www.MovCR.com
Writing library             : x264 core 112
Encoding settings           : cabac=1 / ref=2 / deblock=1:0:0 / analyse=0x1:0x111 / me=hex / subme=6 / psy=1 / psy_rd=1.00:0.00 / mixed_ref=0 / me_range=16 / chroma_me=1 / trellis=0 / 8x8dct=0 / cqm=0 / deadzone=21,11 / fast_pskip=1 / chroma_qp_offset=-2 / threads=12 / sliced_threads=0 / nr=0 / decimate=1 / interlaced=0 / constrained_intra=0 / bframes=2 / b_pyramid=2 / b_adapt=1 / b_bias=0 / direct=1 / weightb=0 / open_gop=0 / weightp=2 / keyint=240 / keyint_min=23 / scenecut=40 / intra_refresh=0 / rc_lookahead=40 / rc=abr / mbtree=1 / bitrate=709 / ratetol=1.0 / qcomp=0.60 / qpmin=3 / qpmax=51 / qpstep=4 / ip_ratio=1.40 / aq=1:1.00
Language                    : English
Default                     : Yes
Forced                      : No
Color range                 : Limited
Color primaries             : BT.709
Transfer characteristics    : BT.709
Matrix coefficients         : BT.709

Audio
ID                          : 2
Format                      : AAC
Format/Info                 : Advanced Audio Codec
Format profile              : LC
Codec ID                    : A_AAC
Duration                    : 1 h 56 min
Bit rate                    : 128 kb/s
Channel(s)                  : 2 channels
Channel positions           : Front: L R
Sampling rate               : 48.0 kHz
Frame rate                  : 46.875 FPS (1024 spf)
Compression mode            : Lossy
Stream size                 : 107 MiB (15%)
Title                       : www.MovCR.com
Language                    : Hindi
Default                     : Yes
Forced                      : No

Text
ID                          : 3
Format                      : UTF-8
Codec ID                    : S_TEXT/UTF8
Codec ID/Info               : UTF-8 Plain Text
Duration                    : 1 h 52 min
Bit rate                    : 54 b/s
Count of elements           : 1402
Stream size                 : 45.0 KiB (0%)
Title                       : www.MovCR.com
Language                    : English
Default                     : Yes
Forced                      : No



 
 
 
 
 
 
 
 
Category:Movies > Bollywood
Lang:Hindi
Total Size:711.37 MB
Info Hash:b09157b452788ee21e3c7260ac44df7388bf8208
Added By:MAZE
Date Added:07-05-2018 10:50:38
Views:392
Hits:93

Download Torrent

Ratings:Not Yet Rated (Log in to rate it)


Tracker:
udp://tracker.openbittorrent.com:80/announce

This Torrent also has backup trackers
URLSeedersLeechersCompleted
http://t.nyaatracker.com:80/announce000
http://asnet.pw:2710/announce000
http://tracker.tfile.co:80/announce000
http://pt.lax.mx:80/announce000
http://tracker.bt-hash.com:443/announce000
http://grifon.info:80/announce000
http://retracker.spark-rostov.ru:80/announce000
http://tr.kxmp.cf:80/announce000
http://tracker.city9x.com:2710/announce000
http://tracker.tfile.me:80/announce000
http://retracker.telecom.by:80/announce000
http://tracker.electro-torrent.pl:80/announce000
http://open.kickasstracker.com:443/announce000
http://retracker.mgts.by:80/announce0011
http://retracker.bashtel.ru:80/announce000
http://tracker.devil-torrents.pl:80/announce000
http://torrentsmd.eu:8080/announce000
http://ns349743.ip-91-121-106.eu:80/announce000
http://torrentsmd.me:8080/announce000
http://agusiq-torrents.pl:6969/announce000
http://fxtt.ru:80/announce000


File List: 


Comments

No comments still posted

Powered by 10 Hamsters v2-svn -|- Page Generated In 1.553934 secs.
-|- RSS FEED
Theme By: Nikkbu