[Login] or [Signup]
Login
Username:
Password:
[Signup]
[Recover Account]


Poll


You must be logged in to view polls



Torrent Details For "Total Dadagiri (2018) Bengali 720p Untouched WEBHD x264 AAC 2GB [MovCR Exclusive]"

Total Dadagiri (2018) Bengali 720p Untouched WEBHD x264 AAC 2GB [MovCR Exclusive]

Download this torrent | Magnet Download
Health:
Seeds: 1
Leechers: 9
Completed: 536 
Last Checked: 03-11-2018 09:12:45
External Torrent
Update Stats
Download Magnet


Poster


iMDB
Imdb Picture Title: Total Dadagiri
Year: 2018
Runtime: 130 minutes
Votes: 29
Rating: 7.0/10
Language: Bengali
Country: India
All Genres: Romance
Plot Outline: Total Dadagiri is a romantic comedy drama directed Pathikrit Basu. This is an entertaining story involving Joy (Yash) and Jonaki (Mimi) , two college graduates who fall in love, after a few...
Director: Pathikrit Basu

Cast:
Yash Dasgupta as Joy Das
Mimi Chakraborty as Jonaki
Shankar Chakraborty as Bibhuti Bhushan Das
Yash Dasgupta as Joy
Rajatabha Dutta as


Watch-Free-HD     Download

Details
Name:Total Dadagiri (2018) Bengali 720p Untouched WEBHD x264 AAC 2GB [MovCR Exclusive]
Description:
Visit  www.movcr.com  FOR MORE EXCLUSIVE UPDATES


Total Dadagiri (2018) Bengali 720p Untouched WEBHD x264 AAC 2GB [MovCR Exclusive]

 http://www.imdb.com/title/tt7817448/

 

General
Unique ID                   : 195827337143805505840063341348281282829 (0x9352F92723F94EA906FACE8D6AA6710D)
Complete name               : [www.MovCR.com] Total Dadagiri (2018) Bengali 720p Untouched WEBHD x264 AAC 2GB [MovCR Exclusive]\www.MovCR.com - Total Dadagiri (2018) Bengali 720p Untouched WEBHD x264 AAC [MovCR Exclusive].mkv
Format                      : Matroska
Format version              : Version 4 / Version 2
File size                   : 1.93 GiB
Duration                    : 2 h 19 min
Overall bit rate            : 1 987 kb/s
Movie name                  : www.MovCR.com
Encoded date                : UTC 2018-04-30 08:08:39
Writing application         : mkvmerge v22.0.0 ('At The End Of The World') 64-bit
Writing library             : libebml v1.3.5 + libmatroska v1.4.8

Video
ID                          : 1
Format                      : AVC
Format/Info                 : Advanced Video Codec
Format profile              : [email protected]
Format settings, CABAC      : Yes
Format settings, ReFrames   : 1 frame
Format settings, GOP        : M=1, N=25
Codec ID                    : V_MPEG4/ISO/AVC
Duration                    : 2 h 19 min
Bit rate mode               : Constant
Bit rate                    : 2 000 kb/s
Width                       : 1 280 pixels
Height                      : 720 pixels
Display aspect ratio        : 16:9
Frame rate mode             : Constant
Frame rate                  : 25.000 FPS
Color space                 : YUV
Chroma subsampling          : 4:2:0
Bit depth                   : 8 bits
Scan type                   : Progressive
Bits/(Pixel*Frame)          : 0.087
Stream size                 : 1.87 GiB (97%)
Title                       : www.MovCR.com
Default                     : Yes
Forced                      : No

Audio
ID                          : 2
Format                      : AAC
Format/Info                 : Advanced Audio Codec
Format profile              : Main
Codec ID                    : A_AAC
Duration                    : 2 h 19 min
Bit rate                    : 61.4 kb/s
Channel(s)                  : 2 channels
Channel positions           : Front: L R
Sampling rate               : 48.0 kHz
Frame rate                  : 46.875 FPS (1024 spf)
Compression mode            : Lossy
Stream size                 : 61.1 MiB (3%)
Title                       : www.MovCR.com
Language                    : Bengali
Default                     : Yes
Forced                      : No



 
 
 
 
 
 
 
 
 
 
Category:Movies > Bengali
Lang:Bengali  Bengali
Total Size:1.93 GB
Info Hash:b6cb8b3f275e72e92d4bb18aa8d2b217be94fd56
Added By:MAZE
Date Added:30-04-2018 10:50:46
Views:483
Hits:101

Download Torrent

Ratings:Not Yet Rated (Log in to rate it)


Tracker:
udp://tracker.openbittorrent.com:80/announce

This Torrent also has backup trackers
URLSeedersLeechersCompleted
http://t.nyaatracker.com:80/announce100
http://asnet.pw:2710/announce000
http://tracker.tfile.co:80/announce000
http://pt.lax.mx:80/announce000
http://tracker.bt-hash.com:443/announce000
http://grifon.info:80/announce000
http://retracker.spark-rostov.ru:80/announce000
http://tr.kxmp.cf:80/announce000
http://tracker.city9x.com:2710/announce0028
http://tracker.tfile.me:80/announce000
http://retracker.telecom.by:80/announce000
http://tracker.electro-torrent.pl:80/announce008
http://open.kickasstracker.com:443/announce110
http://retracker.mgts.by:80/announce0078
http://retracker.bashtel.ru:80/announce000
http://tracker.devil-torrents.pl:80/announce000
http://torrentsmd.eu:8080/announce000
http://ns349743.ip-91-121-106.eu:80/announce000
http://torrentsmd.me:8080/announce000
http://agusiq-torrents.pl:6969/announce000
http://fxtt.ru:80/announce000


File List: 


Comments

No comments still posted

Powered by 10 Hamsters v2-svn -|- Page Generated In 1.871662 secs.
-|- RSS FEED
Theme By: Nikkbu