[Login] or [Signup]
Login
Username:
Password:
[Signup]
[Recover Account]


Poll


You must be logged in to view polls



Torrent Details For "Maze Runner The Death Cure 2018 1080p BluRay Dual Audio Hindi DD 5.1 English 6CH MAVI"

Maze Runner The Death Cure 2018 1080p BluRay Dual Audio Hindi DD 5.1 English 6CH MAVI

Download this torrent | Magnet Download
Health:
Seeds: 0
Leechers: 1
Completed:
Last Checked: 26-09-2018 01:38:49
External Torrent
Update Stats
Download Magnet


Poster
No poster


iMDB
Imdb Picture Title: Maze Runner: The Death Cure
Year: 2018
Runtime: 142 minutes
Votes: 4185
Rating: 7.1/10
Language: English
Country: USA
All Genres: Action, Sci-Fi, Thriller
Plot Outline: Young hero Thomas embarks on a mission to find a cure for a deadly disease known as the "Flare".
Tagline: Every Maze Has An End
Director: Wes Ball
Writing By: T.S. Nowlin,James Dashner,
Produced By: Wes Ball,Marty Bowen,Lorenzo di Bonaventura,Eddie Gamarra,Wyck Godfrey,Ellen Goldsmith-Vein,Joe Hartwick Jr.,T.S. Nowlin,Patrick B. O'Brien,Daniel M. Stillman,Lee Stollman,Lindsay Williams,
Music: John Paesano
Cast:
Dylan O'Brien as Thomas
Ki Hong Lee as Minho
Kaya Scodelario as Teresa
Thomas Brodie-Sangster as Newt
Dexter Darden as Frypan
Will Poulter as Gally
Jacob Lofland as Aris
Rosa Salazar as Brenda
Giancarlo Esposito as Jorge
Patricia Clarkson as Ava Paige
Trailers:
Theatrical Trailer
Trailer #1


Watch-Free-HD     Download

Details
Name:Maze Runner The Death Cure 2018 1080p BluRay Dual Audio Hindi DD 5.1 English 6CH MAVI
Description:



Movie Encode From Full BD/BDREMUX

Maze Runner The Death Cure 2018 1080p BluRay Dual Audio Hindi DD 5.1 English 6CH MAVI

 Join Us Now FaceBook

 Org Bluray Audio Source (Hammer Thanks For Audio)

Video
ID                                       : 1
Format                                   : AVC
Format/Info                              : Advanced Video Codec
Format profile                           : [email protected]
Format settings                          : CABAC / 5 Ref Frames
Format settings, CABAC                   : Yes
Format settings, RefFrames               : 5 frames
Codec ID                                 : V_MPEG4/ISO/AVC
Duration                                 : 2 h 23 min
Bit rate                                 : 5 000 kb/s
Width                                    : 1 920 pixels
Height                                   : 800 pixels
Display aspect ratio                     : 2.40:1
Frame rate mode                          : Constant
Frame rate                               : 23.976 (24000/1001) FPS
Color space                              : YUV
Chroma subsampling                       : 4:2:0
Bit depth                                : 8 bits
Scan type                                : Progressive
Bits/(Pixel*Frame)                       : 0.136
Stream size                              : 5.02 GiB (80%)
Writing library                          : x264 core 155 r2901 7d0ff22
Language                                 : English
Default                                  : Yes
Forced                                   : No
Color range                              : Limited
Color primaries                          : Generic film
Transfer characteristics                 : BT.709
Matrix coefficients                      : BT.709

Audio #1
ID                                       : 2
Format                                   : AC-3
Format/Info                              : Audio Coding 3
Codec ID                                 : A_AC3
Duration                                 : 2 h 23 min
Bit rate mode                            : Constant
Bit rate                                 : 640 kb/s
Channel(s)                               : 6 channels
Channel positions                        : Front: L C R, Side: L R, LFE
Sampling rate                            : 48.0 kHz
Frame rate                               : 31.250 FPS (1536 SPF)
Bit depth                                : 16 bits
Compression mode                         : Lossy
Stream size                              : 659 MiB (10%)
Language                                 : English
Service kind                             : Complete Main
Default                                  : Yes
Forced                                   : No

Audio #2
ID                                       : 3
Format                                   : AC-3
Format/Info                              : Audio Coding 3
Codec ID                                 : A_AC3
Duration                                 : 2 h 23 min
Bit rate mode                            : Constant
Bit rate                                 : 448 kb/s
Channel(s)                               : 6 channels
Channel positions                        : Front: L C R, Side: L R, LFE
Sampling rate                            : 48.0 kHz
Frame rate                               : 31.250 FPS (1536 SPF)
Bit depth                                : 16 bits
Compression mode                         : Lossy
Stream size                              : 461 MiB (7%)
Language                                 : Hindi
Service kind                             : Complete Main
Default                                  : No
Forced                                   : No

Text #1
ID                                       : 4
Format                                   : PGS
Codec ID                                 : S_HDMV/PGS
Codec ID/Info                            : Picture based subtitle format used on BDs/HD-DVDs
Duration                                 : 2 h 22 min
Bit rate                                 : 16.2 kb/s
Count of elements                        : 2792
Stream size                              : 16.5 MiB (0%)
Language                                 : Hindi
Default                                  : No
Forced                                   : No

Text #2
ID                                       : 5
Format                                   : PGS
Codec ID                                 : S_HDMV/PGS
Codec ID/Info                            : Picture based subtitle format used on BDs/HD-DVDs
Duration                                 : 2 h 15 min
Bit rate                                 : 22.7 kb/s
Count of elements                        : 2778
Stream size                              : 22.0 MiB (0%)
Language                                 : English
Default                                  : No
Forced                                   : No

Text #3
ID                                       : 6
Format                                   : PGS
Codec ID                                 : S_HDMV/PGS
Codec ID/Info                            : Picture based subtitle format used on BDs/HD-DVDs
Duration                                 : 2 h 15 min
Bit rate                                 : 28.0 kb/s
Count of elements                        : 3376
Stream size                              : 27.2 MiB (0%)
Title                                    : SDH
Language                                 : English
Default                                  : Yes
Forced                                   : No

Text #4
ID                                       : 7
Format                                   : PGS
Codec ID                                 : S_HDMV/PGS
Codec ID/Info                            : Picture based subtitle format used on BDs/HD-DVDs
Duration                                 : 2 h 18 min
Bit rate                                 : 100 kb/s
Count of elements                        : 6771
Stream size                              : 99.8 MiB (2%)
Title                                    : Commentary
Language                                 : English
Default                                  : No
Forced                                   : No

Menu
00:00:00.000                             : en:00:00:00.000
00:11:31.608                             : en:00:11:31.608
00:15:59.750                             : en:00:15:59.750
00:20:08.457                             : en:00:20:08.457
00:24:34.890                             : en:00:24:34.890
00:30:40.547                             : en:00:30:40.547
00:36:47.330                             : en:00:36:47.330
00:43:15.343                             : en:00:43:15.343
00:48:06.342                             : en:00:48:06.342
00:55:17.397                             : en:00:55:17.397
01:02:42.926                             : en:01:02:42.926
01:07:14.489                             : en:01:07:14.489
01:11:56.062                             : en:01:11:56.062
01:15:48.210                             : en:01:15:48.210
01:23:20.329                             : en:01:23:20.329
01:29:45.422                             : en:01:29:45.422
01:34:00.593                             : en:01:34:00.593
01:40:09.795                             : en:01:40:09.795
01:43:33.082                             : en:01:43:33.082
01:53:38.645                             : en:01:53:38.645
01:59:43.885                             : en:01:59:43.885
02:04:49.399                             : en:02:04:49.399
02:10:03.087                             : en:02:10:03.087
02:18:03.859                             : en:02:18:03.859





 
 
 
 
 
 
 
 
 
 
 
 

Category:Movies > Hollywood Dub
Lang:Hindi
Total Size:6.34 GB
Info Hash:2720bcb8d5dd9d4a73c11e73ae9d1f57933fb8a9
Added By:Sup2425
Date Added:28-04-2018 10:58:52
Views:227
Hits:29

Download Torrent

Ratings:Not Yet Rated (Log in to rate it)


Tracker:
UDP://TRACKER.LEECHERS-PARADISE.ORG:6969/ANNOUNCE


File List: 


Comments

No comments still posted

Powered by 10 Hamsters v2-svn -|- Page Generated In 0.784726 secs.
-|- RSS FEED
Theme By: Nikkbu