[Login] or [Signup]
Login
Username:
Password:
[Signup]
[Recover Account]


Poll


You must be logged in to view polls



Torrent Details For "Madras Cafe.2013.720p Hindi-=!ARIF HD 241 R-B!=-"

Madras Cafe.2013.720p Hindi-=!ARIF HD 241 R-B!=-

Download this torrent | Magnet Download
Health:
Seeds: 0
Leechers: 6
Completed:
Last Checked: 17-05-2018 15:53:31
External Torrent
Update Stats
Download Magnet


Poster


iMDB
Imdb Picture Title: Madras Cafe
Year: 2013
Runtime: 130 minutes
Votes: 19268
Rating: 7.7/10
Language: Hindi
Country: India
All Genres: Action, Drama, History, Thriller, War
Plot Outline: An Indian intelligence agent journeys to a war-torn coastal island to break a resolute rebel group and meets a passionate journalist.
Director: Shoojit Sircar
Writing By: Shubhendu Bhattacharya,Juhi Chaturvedi,Somnath Dey,Dusan Tolmac,
Produced By: John Abraham,Sagar Bhanushali,Maitreyee Dasgupta,Sheel Kumar,Ronnie Lahiri,Kumar Thakur,
Music: Shantanu Moitra
Cast:
John Abraham as Vikram Singh
Nargis Fakhri as Jaya Sahni
Raashi Khanna as Ruby
Aayam Mehta as Vasu
Prakash Belawadi as Bala Krishnan
Avijit Dutt as Swarup
Kannan Arunachalam as Shri
Sanjay Gurbaxani as Former Prime Minister
Leena Maria Paul as Tamil rebel
Dibang as Informer, bangkok


Watch-Free-HD     Download

Details
Name:Madras Cafe.2013.720p Hindi-=!ARIF HD 241 R-B!=-
Description:
General
Complete name               : C:\Users\Arif Mobeiles\Downloads\Madras Cafe.2013.720p Hindi-=!ARIF HD 241 R-B!=-\Madras Cafe.2013.720p Hindi-=!ARIF HD 241 R-B!=-.mp4
Format                      : MPEG-4
Format profile              : Base Media / Version 2
Codec ID                    : mp42 (isom/iso2/avc1/mp41)
File size                   : 1.53 GiB
Duration                    : 2 h 8 min
Overall bit rate mode       : Variable
Overall bit rate            : 1 703 kb/s
Movie name                  : {Arif HD 241R-B 3007287778}
Encoded date                : UTC 2018-04-26 04:34:11
Tagged date                 : UTC 2018-04-26 04:34:11
Writing application         : HandBrake 1.0.7 2017040900

Video
ID                          : 1
Format                      : AVC
Format/Info                 : Advanced Video Codec
Format profile              : [email protected]
Format settings             : CABAC / 4 Ref Frames
Format settings, CABAC      : Yes
Format settings, ReFrames   : 4 frames
Codec ID                    : avc1
Codec ID/Info               : Advanced Video Coding
Duration                    : 2 h 8 min
Bit rate                    : 1 539 kb/s
Width                       : 1 280 pixels
Height                      : 528 pixels
Display aspect ratio        : 2.40:1
Frame rate mode             : Constant
Frame rate                  : 24.000 FPS
Color space                 : YUV
Chroma subsampling          : 4:2:0
Bit depth                   : 8 bits
Scan type                   : Progressive
Bits/(Pixel*Frame)          : 0.095
Stream size                 : 1.38 GiB (90%)
Writing library             : x264 core 148 r2708 86b7198
Encoded date                : UTC 2018-04-26 04:34:11
Tagged date                 : UTC 2018-04-26 04:34:11
Color range                 : Limited
Color primaries             : BT.709
Transfer characteristics    : BT.709
Matrix coefficients         : BT.709

Audio
ID                          : 2
Format                      : AAC
Format/Info                 : Advanced Audio Codec
Format profile              : LC
Codec ID                    : mp4a-40-2
Duration                    : 2 h 8 min
Bit rate mode               : Variable
Bit rate                    : 158 kb/s
Channel(s)                  : 2 channels
Channel positions           : Front: L R
Sampling rate               : 48.0 kHz
Frame rate                  : 46.875 FPS (1024 SPF)
Compression mode            : Lossy
Stream size                 : 145 MiB (9%)
Title                       : Stereo / Stereo
Default                     : Yes
Alternate group             : 1
Encoded date                : UTC 2018-04-26 04:34:11
Tagged date                 : UTC 2018-04-26 04:34:11

Screen Short









Category:Movies > Bollywood
Lang:Hindi
Total Size:1.53 GB
Info Hash:62713b03808542df5cdee4c10c3327cd1adfcc29
Added By:Unknown
Date Added:26-04-2018 08:33:49
Views:797
Hits:178

Download Torrent

Ratings:Not Yet Rated (Log in to rate it)


Tracker:
udp://tracker.openbittorrent.com:80/announce


File List: 


Comments

No comments still posted

Powered by 10 Hamsters v2-svn -|- Page Generated In 0.540591 secs.
-|- RSS FEED
Theme By: Nikkbu