[Login] or [Signup]
Login
Username:
Password:
[Signup]
[Recover Account]


Poll


You must be logged in to view polls



Torrent Details For "Paul (2011) 1080p HEVC H265 Dual Audio [Hindi DD 5.1 384 Kbps - English DD 5.1 384 Kbps] [Dzrg ..."

Paul (2011) 1080p HEVC H265 Dual Audio [Hindi DD 5.1 384 Kbps - English DD 5.1 384 Kbps] [Dzrg ...

Download this torrent | Magnet Download
Health:
Seeds: 0
Leechers: 19
Completed: 607 
Last Checked: 17-09-2018 00:52:48
External Torrent
Update Stats
Download Magnet


Poster


iMDB
Imdb Picture Title: Paul
Year: 2011
Runtime: 104 minutes
Votes: 210433
Rating: 7.0/10
Language: English, Klingon
Country: USA, UK
All Genres: Adventure, Comedy, Sci-Fi
Plot Outline: Two English comic book geeks traveling across the U.S. encounter an alien outside Area 51.
Tagline: Only Girls Phone Home
Director: Greg Mottola
Writing By: Simon Pegg,Nick Frost,
Produced By: Tim Bevan,Liza Chasin,Eric Fellner,Robert Graf,Debra Hayward,Nira Park,Adam Schardein,Natascha Wharton,
Music: David Arnold
Cast:
Mia Stallard as Young Tara
Simon Pegg as Graeme Willy
Nick Frost as Clive Gollings
Jeremy Owen as Sword Vendor
Jeffrey Tambor as Adam Shadowchild
David House as Security Guard
Jennifer Granger as Adam Shadowchild Fan
Nelson Ascencio as Jorge
Bobby Lee as Valet
Jane Lynch as Pat Stevens
Trailers:
Paul: U.S. Trailer #1
Paul: International Trailer #2
Paul: International Trailer


Watch-Free-HD     Download

Details
Name:Paul (2011) 1080p HEVC H265 Dual Audio [Hindi DD 5.1 384 Kbps - English DD 5.1 384 Kbps] [Dzrg ...
Description:
[align=center]



Paul (2011) 1080p HEVC H265 Dual Audio [Hindi DD 5.1 384 Kbps - English DD 5.1 384 Kbps] [Dzrg Torrents].mkv

Big Thanks To Hammer Bro For The Audio..

[video]http://www.youtube.com/watch?v=IyJo6ESSiMY[/video]



General
Format                                   : Matroska
Format version                           : Version 4 / Version 2
File size                                : 2.54 GiB
Duration                                 : 1 h 43 min
Overall bit rate                         : 3 509 kb/s
Movie name                               : Paul (2011) 1080p HEVC H265 Dual Audio [Hindi DD 5.1 384 Kbps - English DD 5.1 384 Kbps] [Dzrg Torrents].mkv
Encoded date                             : UTC 2018-04-19 08:57:23
Writing application                      : mkvmerge v15.0.0 ('Duel with the Devil') 64-bit
Writing library                          : libebml v1.3.5 + libmatroska v1.4.5




Video
ID                                       : 1
Format                                   : HEVC
Format/Info                              : High Efficiency Video Coding
Format profile                           : Main [email protected]@Main
Codec ID                                 : V_MPEGH/ISO/HEVC
Duration                                 : 1 h 43 min
Bit rate                                 : 2 732 kb/s
Width                                    : 1 920 pixels
Height                                   : 816 pixels
Display aspect ratio                     : 2.35:1
Frame rate mode                          : Constant
Frame rate                               : 23.976 (24000/1001) FPS
Color space                              : YUV
Chroma subsampling                       : 4:2:0
Stream size                              : 1.98 GiB (78%)
Title                                    : Paul (2011) 1080p HEVC H265 Dual Audio [Hindi DD 5.1 384 Kbps - English DD 5.1 384 Kbps] [Dzrg Torrents].mkv
Language                                 : Hindi
Default                                  : Yes
Forced                                   : No




        




Audio #1
ID                                       : 2
Format                                   : AC-3
Format/Info                              : Audio Coding 3
Mode extension                           : CM (complete main)
Format settings, Endianness              : Big
Codec ID                                 : A_AC3
Duration                                 : 1 h 43 min
Bit rate mode                            : Constant
Bit rate                                 : 384 kb/s
Channel(s)                               : 6 channels
Channel positions                        : Front: L C R, Side: L R, LFE
Sampling rate                            : 48.0 kHz
Frame rate                               : 31.250 FPS (1536 spf)
Bit depth                                : 16 bits
Compression mode                         : Lossy
Stream size                              : 285 MiB (11%)
Title                                    : [Hindi DD 5.1 384 Kbps] [Dzrg Torrents]
Language                                 : Hindi
Default                                  : Yes
Forced                                   : No




Audio #2
ID                                       : 3
Format                                   : AC-3
Format/Info                              : Audio Coding 3
Mode extension                           : CM (complete main)
Format settings, Endianness              : Big
Codec ID                                 : A_AC3
Duration                                 : 1 h 43 min
Bit rate mode                            : Constant
Bit rate                                 : 384 kb/s
Channel(s)                               : 6 channels
Channel positions                        : Front: L C R, Side: L R, LFE
Sampling rate                            : 48.0 kHz
Frame rate                               : 31.250 FPS (1536 spf)
Bit depth                                : 16 bits
Compression mode                         : Lossy
Stream size                              : 285 MiB (11%)
Title                                    : [English DD 5.1 384 Kbps] [Dzrg Torrents]
Language                                 : English
Default                                  : No
Forced                                   : No





Text
ID                                       : 4
Format                                   : VobSub
Muxing mode                              : zlib
Codec ID                                 : S_VOBSUB
Codec ID/Info                            : Picture based subtitle format used on DVDs
Duration                                 : 1 h 37 min
Bit rate                                 : 13.8 kb/s
Count of elements                        : 1818
Stream size                              : 9.64 MiB (0%)
Title                                    : [Vob Sub] [Dzrg Torrents]
Language                                 : English
Default                                  : Yes
Forced                                   : No




Menu
00:00:00.000                             : en:Chapter 01
00:05:25.325                             : en:Chapter 02
00:11:20.763                             : en:Chapter 03
00:16:52.636                             : en:Chapter 04
00:23:53.890                             : en:Chapter 05
00:28:58.445                             : en:Chapter 06
00:31:24.591                             : en:Chapter 07
00:36:50.333                             : en:Chapter 08
00:40:54.243                             : en:Chapter 09
00:43:57.426                             : en:Chapter 10
00:51:13.320                             : en:Chapter 11
00:56:30.387                             : en:Chapter 12
01:00:42.347                             : en:Chapter 13
01:07:01.142                             : en:Chapter 14
01:11:41.755                             : en:Chapter 15
01:18:28.412                             : en:Chapter 16
01:21:06.486                             : en:Chapter 17
01:26:53.124                             : en:Chapter 18
01:30:45.940                             : en:Chapter 19
01:35:29.640                             : en:Chapter 20



Please Contribute Through Bitcoin-378zyc7YCno2H3kpqQomw1aJaUTaoeQWGC



[/align]
Category:Movies > Hollywood Dub
Lang:Hindi
Total Size:2.54 GB
Info Hash:9fe2fc7d3f3d87efa5f53b4d09abc5fb9bd47946
Added By:DzrgTorrents
Date Added:20-04-2018 07:28:41
Views:1,042
Hits:150

Download Torrent

Ratings:Not Yet Rated (Log in to rate it)


Tracker:
udp://tracker.coppersurfer.tk:6969/announce


File List: 


Comments

No comments still posted

Powered by 10 Hamsters v2-svn -|- Page Generated In 2.679557 secs.
-|- RSS FEED
Theme By: Nikkbu