[Login] or [Signup]
Login
Username:
Password:
[Signup]
[Recover Account]


Poll


You must be logged in to view polls



Torrent Details For "Road (2002) DVDRip Hindi H.264 ACC - LatestHDMovies"

Road (2002) DVDRip Hindi H.264 ACC - LatestHDMovies

Download this torrent | Magnet Download
Health:
Seeds: 0
Leechers: 8
Completed:
Last Checked: 02-10-2018 14:37:54
External Torrent
Update Stats
Download Magnet


Poster


iMDB
Imdb Picture Title: Road
Year: 2002
Runtime: 134 minutes
Votes: 1022
Rating: 5.6/10
Language: Hindi
Country: India
All Genres: Thriller
Plot Outline: A couple decide to pick up a hitchhiker, but he ends up being a psychotic stalker who puts in them in danger.
Tagline: Drive carefully
Director: Rajat Mukherjee
Writing By: Rajnish Thakur,
Produced By: Tim Becker,A.V.S. Raju,P.T. Giridhar Rao,Ram Gopal Varma,Suman Varma,Hemant Watsa,
Music: Sandeep Chowta Amar Mohile Nitin Raikwar Sandesh Shandilya
Cast:
Manoj Bajpayee as Babu
Vivek Oberoi as Arvind Chauhan
Antara Mali as Lakshmi
Sayaji Shinde as Inspector Singh
Makrand Deshpande as Inderpal
Rajpal Yadav as Bhanwar Singh
Vijay Raaz as Villager on the road
Ganesh Yadav as Bungalow watchman
Raj Zutshi as Kishan bhai
Rajnish Thakur as Hotel receptionist


Watch-Free-HD     Download

Details
Name:Road (2002) DVDRip Hindi H.264 ACC - LatestHDMovies
Description:





[[>>SAMPLE<<]]
 http://oload.stream/f/wM_aEPH...es___TeamSHAHID-.mp4








General
Unique ID                   : 232419234318786197361689699996035464782 (0xAEDA50F935373D13AD78C856606C3E4E)
Complete name               : C:\Users\SHAHID\Downloads\Video\Road (2002) DVDRip Hindi H.264 ACC - LatestHDMovies.mkv
Format                      : Matroska
Format version              : Version 4 / Version 2
File size                   : 1.33 GiB
Duration                    : 2 h 14 min
Overall bit rate            : 1 410 kb/s
Movie name                  : LatestHDMovies | TeamSHAHID
Encoded date                : UTC 2018-04-18 11:02:20
Writing application         : mkvmerge v21.0.0 ('Tardigrades Will Inherit The Earth') 32-bit
Writing library             : libebml v1.3.5 + libmatroska v1.4.8
Cover                       : Yes
Attachments                 : Cover.jpg

Video
ID                          : 1
Format                      : AVC
Format/Info                 : Advanced Video Codec
Format profile              : [email protected]
Format settings             : CABAC / 5 Ref Frames
Format settings, CABAC      : Yes
Format settings, ReFrames   : 5 frames
Codec ID                    : V_MPEG4/ISO/AVC
Duration                    : 2 h 14 min
Bit rate                    : 1 159 kb/s
Width                       : 704 pixels
Height                      : 304 pixels
Display aspect ratio        : 2.35:1
Frame rate mode             : Constant
Frame rate                  : 23.976 (24000/1001) FPS
Color space                 : YUV
Chroma subsampling          : 4:2:0
Bit depth                   : 8 bits
Scan type                   : Progressive
Bits/(Pixel*Frame)          : 0.226
Stream size                 : 1.09 GiB (82%)
Title                       : LatestHDMovies - TeamSHAHID
Writing library             : x264 core 120
Encoding settings           : cabac=1 / ref=6 / deblock=1:-1:-1 / analyse=0x3:0x113 / me=umh / subme=9 / psy=1 / psy_rd=1.00:0.02 / mixed_ref=1 / me_range=16 / chroma_me=1 / trellis=2 / 8x8dct=1 / cqm=0 / deadzone=21,11 / fast_pskip=1 / chroma_qp_offset=-3 / threads=12 / sliced_threads=0 / nr=0 / decimate=1 / interlaced=0 / bluray_compat=0 / constrained_intra=0 / bframes=5 / b_pyramid=1 / b_adapt=2 / b_bias=0 / direct=1 / weightb=1 / open_gop=0 / weightp=2 / keyint=240 / keyint_min=24 / scenecut=40 / intra_refresh=0 / rc_lookahead=50 / rc=2pass / mbtree=1 / bitrate=1159 / ratetol=1.0 / qcomp=0.60 / qpmin=3 / qpmax=69 / qpstep=4 / cplxblur=20.0 / qblur=0.5 / ip_ratio=1.40 / aq=1:1.00
Default                     : Yes
Forced                      : No
Color range                 : Limited
Color primaries             : BT.601 NTSC
Transfer characteristics    : BT.709
Matrix coefficients         : BT.601

Audio
ID                          : 2
Format                      : AAC
Format/Info                 : Advanced Audio Codec
Format profile              : LC
Codec ID                    : A_AAC-2
Duration                    : 2 h 14 min
Bit rate                    : 249 kb/s
Channel(s)                  : 2 channels
Channel positions           : Front: L R
Sampling rate               : 44.1 kHz
Frame rate                  : 43.066 FPS (1024 SPF)
Compression mode            : Lossy
Delay relative to video     : -23 ms
Stream size                 : 240 MiB (18%)
Title                       : LatestHDMovies - TeamSHAHID
Language                    : Hindi
Default                     : Yes
Forced                      : No




 
        
Category:Movies > Bollywood
Lang:Hindi
Total Size:1.33 GB
Info Hash:1c1a628fc6497f1df83d8784c1db889911985aac
Added By:ShahidHasanzai
Date Added:18-04-2018 15:30:03
Views:981
Hits:100

Download Torrent

Ratings:Not Yet Rated (Log in to rate it)


Tracker:
udp://tracker.openbittorrent.com:80/announce


File List: 


Comments

No comments still posted

Powered by 10 Hamsters v2-svn -|- Page Generated In 4.256032 secs.
-|- RSS FEED
Theme By: Nikkbu