[Login] or [Signup]
Login
Username:
Password:
[Signup]
[Recover Account]


Poll


You must be logged in to view polls



Torrent Details For "Barsaat (1995) HDRip 720p Hindi H.264 ACC - LatestHDMovies"

Barsaat (1995) HDRip 720p Hindi H.264 ACC - LatestHDMovies

Download this torrent | Magnet Download
Health:
Seeds: 1
Leechers: 6
Completed: 360 
Last Checked: 02-10-2018 17:05:27
External Torrent
Update Stats
Download Magnet


Poster


iMDB
Imdb Picture Title: Barsaat
Year: 1995
Runtime: 166 minutes
Votes: 858
Rating: 5.4/10
Language: Hindi
Country: India
All Genres: Action, Romance
Plot Outline: Badal comes from a rural village to take an enrollment into a college in the city. He meets his fellow collegian, Tina Oberoi and both gets acquainted with each other and after a few ...
Director: Rajkumar Santoshi
Writing By: Shyam Gupta,Rajkumar Santoshi,Rajkumar Santoshi,Rajkumar Santoshi,
Produced By: Sunny Deol,Dharmendra,Rajesh Khanna,
Music: Louis Banks Shravan Rathod Nadeem Saifi
Cast:
Bobby Deol as Badal
Twinkle Khanna as Tina Oberoi
Raj Babbar as Dinesh Oberoi
Mukesh Khanna as Bhairon (Badal's Father)
Harish Patel as Damru 'Danny'
Anjan Srivastav as Maula Ram
Bharat Kapoor as R.K. Mehra
Ashwin Kaushal as Bhushi
Vijay Kashyap as Kapurchand (College Principal)
Suhas Bhalekar as


Watch-Free-HD     Download

Details
Name:Barsaat (1995) HDRip 720p Hindi H.264 ACC - LatestHDMovies
Description:





[[>>SAMPLE<<]]
 http://openload.co/f/WIGyfGbD...es___TeamSHAHID-.mp4







General
Unique ID                   : 196096037879257163598865867776261219515 (0x9386B91F3A19A8981B2AF557E6F9E4BB)
Complete name               : C:\Users\SHAHID\Downloads\Video\Barsaat (1995) HDRip 720p Hindi H.264 ACC - LatestHDMovies.mkv
Format                      : Matroska
Format version              : Version 4 / Version 2
File size                   : 1.48 GiB
Duration                    : 2 h 45 min
Overall bit rate            : 1 281 kb/s
Movie name                  : LatestHDMovies | TeamSHAHID
Encoded date                : UTC 2018-04-13 14:47:34
Writing application         : mkvmerge v21.0.0 ('Tardigrades Will Inherit The Earth') 32-bit
Writing library             : libebml v1.3.5 + libmatroska v1.4.8
Cover                       : Yes
Attachments                 : Cover.jpg

Video
ID                          : 1
Format                      : AVC
Format/Info                 : Advanced Video Codec
Format profile              : [email protected]
Format settings             : CABAC / 5 Ref Frames
Format settings, CABAC      : Yes
Format settings, ReFrames   : 5 frames
Codec ID                    : V_MPEG4/ISO/AVC
Duration                    : 2 h 45 min
Bit rate                    : 1 088 kb/s
Width                       : 1 280 pixels
Height                      : 544 pixels
Display aspect ratio        : 2.35:1
Frame rate mode             : Constant
Frame rate                  : 25.000 FPS
Color space                 : YUV
Chroma subsampling          : 4:2:0
Bit depth                   : 8 bits
Scan type                   : Progressive
Bits/(Pixel*Frame)          : 0.063
Stream size                 : 1.26 GiB (85%)
Title                       : LatestHDMovies - TeamSHAHID
Writing library             : x264 core 148 r2643 5c65704
Encoding settings           : cabac=1 / ref=5 / deblock=1:0:0 / analyse=0x3:0x113 / me=hex / subme=7 / psy=1 / psy_rd=1.00:0.00 / mixed_ref=1 / me_range=16 / chroma_me=1 / trellis=1 / 8x8dct=1 / cqm=0 / deadzone=21,11 / fast_pskip=1 / chroma_qp_offset=-2 / threads=8 / lookahead_threads=8 / sliced_threads=1 / slices=8 / nr=0 / decimate=1 / interlaced=0 / bluray_compat=0 / constrained_intra=0 / bframes=0 / weightp=2 / keyint=250 / keyint_min=25 / scenecut=40 / intra_refresh=0 / rc=abr / mbtree=0 / bitrate=1088 / ratetol=1.0 / qcomp=0.60 / qpmin=0 / qpmax=69 / qpstep=4 / ip_ratio=1.40 / aq=1:1.00
Language                    : English
Default                     : Yes
Forced                      : No

Audio
ID                          : 2
Format                      : AAC
Format/Info                 : Advanced Audio Codec
Format profile              : LC
Codec ID                    : A_AAC-2
Duration                    : 2 h 45 min
Bit rate                    : 192 kb/s
Channel(s)                  : 2 channels
Channel positions           : Front: L R
Sampling rate               : 48.0 kHz
Frame rate                  : 46.875 FPS (1024 SPF)
Compression mode            : Lossy
Delay relative to video     : 9 ms
Stream size                 : 228 MiB (15%)
Title                       : LatestHDMovies - TeamSHAHID
Language                    : Hindi
Default                     : Yes
Forced                      : No



 
            
Category:Movies > Bollywood
Lang:Hindi
Total Size:1.48 GB
Info Hash:936a5fae3bb069c3dc3ef6037edcc5a3ad8cfb27
Added By:ShahidHasanzai
Date Added:13-04-2018 15:57:34
Views:699
Hits:204

Download Torrent

Ratings:Not Yet Rated (Log in to rate it)


Tracker:
udp://tracker.openbittorrent.com:80/announce


File List: 


Comments

No comments still posted

Powered by 10 Hamsters v2-svn -|- Page Generated In 1.567970 secs.
-|- RSS FEED
Theme By: Nikkbu