[Login] or [Signup]
Login
Username:
Password:
[Signup]
[Recover Account]


Poll


You must be logged in to view polls



Torrent Details For "Super Singh 2017 720p HD Hindi GOPISAHI"

Super Singh 2017 720p HD Hindi GOPISAHI

Download this torrent | Magnet Download
Health:
Seeds: 0
Leechers: 0
Completed: 5,035 
Last Checked: 18-11-2018 01:04:27
External Torrent
Update Stats
Download Magnet


Poster


iMDB
Imdb Picture Title: Super Singh
Year: 2017
Runtime: 155 minutes
Votes: 342
Rating: 6.9/10
Language: Panjabi
Country: India
All Genres: Action, Comedy, Fantasy, Romance
Plot Outline: A man's life changes after he unknowingly gets super powers and then embarks on a journey that helps him discover the true meaning of love, life, courage, sacrifice, and his role in the world.
Tagline: Ikk Taa Assi Singh Utton Super!!
Director: Anurag Singh
Writing By: Anurag Singh,Dheeraj Rattan,Anurag Singh,Jagdeep Singh,Rupinder Inderjit,Anurag Singh,
Produced By: Aman Gill,Karan Gill,Pawan Gill,Gurpreet Singh Gyani,Ekta Kapoor,Shobha Kapoor,Marjorie Langevin,Rupesh Mali,Sameer Nair,Sakett Saawhney,Anurag Singh,
Music: Jatinder Shah
Cast:
Diljit Dosanjh as Sajjan
Sonam Bajwa as Twinkle
Pavan Malhotra as Sant Rehmat Singh
Alexandra Bandean as Cathy
Navnindra Behl as
Alex Dorantes as Mark
Rana Ranbir as
Meherbaan Singh as Happy
Jennifer Davos as Ustad's Mother
Dominic Hardy as Violent thief


Watch-Free-HD     Download

Details
Name:Super Singh 2017 720p HD Hindi GOPISAHI
Description:

Format                         : Matroska

Format version                 : Version 4 / Version 2

File size                      : 601 MiB

Duration                       : 2 h 26 min

Overall bit rate               : 573 kb/s

Movie name                     : Super Singh 2017 GOPISAHI


Video

Format                         : AVC

Codec ID                       : V_MPEG4/ISO/AVC

Duration                       : 2 h 26 min

Bit rate                       : 500 kb/s

Width                          : 1 280 pixels

Height                         : 450 pixels

Display aspect ratio           : 2.844

Frame rate mode                : Constant

Frame rate                     : 25.000 FPS

Stream size                    : 524 MiB (87%)

Title                          : GOPISAHI

Writing library                : x264 core 148 r2708 86b719T.709


Audio

Format                         : AAC

Duration                       : 2 h 26 min

Bit rate                       : 72.0 kb/s

Channel(s)                     : 6 channels

Channel positions              : Front: L C R, Side: L R, LFE

Sampling rate                  : 44.1 kHz

Frame rate                     : 43.066 FPS (1024 SPF)

Compression mode               : Lossy

Stream size                    : 74.5 MiB (12%)

Title                          : GOPISAHI

Language                       : Hindi


Category:Movies > Bollywood
Lang:Hindi
Total Size:600.98 MB
Info Hash:8cd5fb524dfecd21ae3b8ba80be5a6022e99cefe
Added By:gopisahi
Date Added:09-04-2018 14:17:02
Views:968
Hits:136

Download Torrent

Ratings:Not Yet Rated (Log in to rate it)


Tracker:
udp://9.rarbg.com:2740/announce


File List: 


Comments

No comments still posted

Powered by 10 Hamsters v2-svn -|- Page Generated In 0.427142 secs.
-|- RSS FEED
Theme By: Nikkbu