[Login] or [Signup]
Login
Username:
Password:
[Signup]
[Recover Account]


Poll


You must be logged in to view polls



Torrent Details For "WWE WrestleMania 34 08 04 2018 Dual Audio Hindi Full Show HDTV H264 AAC 1GB [HDFilmBoss]"

WWE WrestleMania 34 08 04 2018 Dual Audio Hindi Full Show HDTV H264 AAC 1GB [HDFilmBoss]

Download this torrent | Magnet Download
Health:
Seeds: 0
Leechers: 0
Completed:
Last Checked: 13-11-2018 13:39:21
External Torrent
Update Stats
Download Magnet


Poster


Watch-Free-HD     Download

Details
Name:WWE WrestleMania 34 08 04 2018 Dual Audio Hindi Full Show HDTV H264 AAC 1GB [HDFilmBoss]
Description:
General
Complete name                            : WWE WrestleMania 34 (08 04 2018) Dual Audio Hindi Full Show HDTV H264 AAC 720p 1.5GB-HDFilmBoss.Com.mp4
Format profile                           : Base Media
Codec ID                                 : isom (isom/iso2/avc1/mp41)
File size                                : 992 MiB
Duration                                 : 5 h 10 min
Overall bit rate                         : 446 kb/s
Movie name                               : HDFilmBoss.Com

Video
ID                                       : 1
Format                                   : AVC
Format settings, CABAC                   : Yes
Format settings, RefFrames               : 4 frames
Codec ID                                 : avc1
Codec ID/Info                            : Advanced Video Coding
Duration                                 : 5 h 10 min
Bit rate                                 : 309 kb/s
Width                                    : 640 pixels
Height                                   : 360 pixels
Display aspect ratio                     : 16:9
Color space                              : YUV
Chroma subsampling                       : 4:2:0
Bit depth                                : 8 bits
Stream size                              : 690 MiB (70%)
Writing library                          : x264

Audio
ID                                       : 2
Format                                   : AAC
Format profile                           : LC
Duration                                 : 5 h 10 min
Bit rate                                 : 128 kb/s
Channel(s)                               : 2 channels
Channel(s)_Original                      : 1 channel
Sampling rate                            : 44.1 kHz
Stream size                              : 285 MiB (29%)
Language                                 : Hindi
Default                                  : Yes
Alternate group                          : 1




Visit Site http://hdfilmboss.com/
Category:TV > Sports
Lang:Hindi
Total Size:992.18 MB
Info Hash:00e7224914ddd61c8e834878c0f4bf937dfbed91
Added By:HDFilmBoss
Date Added:09-04-2018 08:49:28
Views:710
Hits:328

Download Torrent

Ratings:Not Yet Rated (Log in to rate it)


Tracker:
udp://tracker.coppersurfer.tk:6969/announce


File List: 


Comments

No comments still posted

Powered by 10 Hamsters v2-svn -|- Page Generated In 0.180855 secs.
-|- RSS FEED
Theme By: Nikkbu