[Login] or [Signup]
Login
Username:
Password:
[Signup]
[Recover Account]


Poll


You must be logged in to view polls



Torrent Details For "Jolly LLB 2 (2017) 1080p Untouched WEBHD AVC AAC [DDR]"

Jolly LLB 2 (2017) 1080p Untouched WEBHD AVC AAC [DDR]

Download this torrent | Magnet Download
Health:
Seeds: 0
Leechers: 0
Completed:
Last Checked: 18-11-2018 14:37:10
External Torrent
Update Stats
Download Magnet


Poster


Watch-Free-HD     Download

Details
Name:Jolly LLB 2 (2017) 1080p Untouched WEBHD AVC AAC [DDR]
Description:


Quote:

Code:
General
Format                                   : MPEG-4
Format profile                           : Base Media
Codec ID                                 : isom (isom/iso2/avc1/mp41)
File size                                : 5.72 GiB
Duration                                 : 2 h 13 min
Overall bit rate mode                    : Constant
Overall bit rate                         : 6 132 kb/s
Writing application                      : Lavf56.15.102

Video
ID                                       : 1
Format                                   : AVC
Format/Info                              : Advanced Video Codec
Format profile                           : [email protected]
Format settings, CABAC                   : Yes
Format settings, ReFrames                : 1 frame
Format settings, GOP                     : M=1, N=25
Codec ID                                 : avc1
Codec ID/Info                            : Advanced Video Coding
Duration                                 : 2 h 13 min
Bit rate mode                            : Constant
Bit rate                                 : 6 000 kb/s
Width                                    : 1 920 pixels
Height                                   : 1 080 pixels
Display aspect ratio                     : 16:9
Frame rate mode                          : Constant
Frame rate                               : 25.000 FPS
Color space                              : YUV
Chroma subsampling                       : 4:2:0
Bit depth                                : 8 bits
Scan type                                : Progressive
Bits/(Pixel*Frame)                       : 0.116
Stream size                              : 5.60 GiB (98%)

Audio
ID                                       : 2
Format                                   : AAC
Format/Info                              : Advanced Audio Codec
Format profile                           : LC
Codec ID                                 : 40
Duration                                 : 2 h 13 min
Bit rate mode                            : Constant
Bit rate                                 : 125 kb/s
Channel(s)                               : 2 channels
Channel positions                        : Front: L R
Sampling rate                            : 48.0 kHz
Frame rate                               : 46.875 FPS (1024 spf)
Compression mode                         : Lossy
Stream size                              : 120 MiB (2%)
Default                                  : Yes
Alternate group                          : 1



             
Category:Movies > Bollywood
Lang:Hindi
Total Size:5.72 GB
Info Hash:6d99247a6a57e5e2af054d8b1139c2cf88550809
Added By:Unknown
Date Added:07-04-2017 23:52:41
Views:381
Hits:95

Download Torrent

Ratings:Not Yet Rated (Log in to rate it)


Tracker:
udp://tracker.coppersurfer.tk:6969/announce


File List: 


Comments

No comments still posted

Powered by 10 Hamsters v2-svn -|- Page Generated In 1.369501 secs.
-|- RSS FEED
Theme By: Nikkbu