[Login] or [Signup]
Login
Username:
Password:
[Signup]
[Recover Account]


Poll


You must be logged in to view polls



Torrent Details For "Dead on Arrival 2017 720p WEB-DL x264 ESub[MW]"

Dead on Arrival 2017 720p WEB-DL x264 ESub[MW]

Download this torrent | Magnet Download
Health:
Seeds: 0
Leechers: 0
Completed:
Last Checked: 18-11-2018 21:13:08
External Torrent
Update Stats
Download Magnet


Poster
No poster


Watch-Free-HD     Download

Details
Name:Dead on Arrival 2017 720p WEB-DL x264 ESub[MW]
Description:

 


General
Format                                   : Matroska
Format version                           : Version 4 / Version 2
File size                                : 1.07 GiB
Duration                                 : 1 h 37 min
Overall bit rate                         : 1 572 kb/s

Video
ID                                       : 1
Format                                   : AVC
Format/Info                              : Advanced Video Codec
Format profile                           : [email protected]
Format settings                          : CABAC / 4 Ref Frames
Format settings, CABAC                   : Yes
Format settings, RefFrames               : 4 frames
Codec ID                                 : V_MPEG4/ISO/AVC
Duration                                 : 1 h 37 min
Bit rate                                 : 1 500 kb/s
Width                                    : 1 280 pixels
Height                                   : 536 pixels
Display aspect ratio                     : 2.40:1
Frame rate mode                          : Constant
Frame rate                               : 23.976 (24000/1001) FPS
Color space                              : YUV
Chroma subsampling                       : 4:2:0
Bit depth                                : 8 bits
Scan type                                : Progressive
Bits/(Pixel*Frame)                       : 0.091
Stream size                              : 1.00 GiB (94%)
Writing library                          : x264 core 155 r2893 b00bcaf
Default                                  : Yes
Forced                                   : No

Audio
ID                                       : 2
Format                                   : AAC
Format/Info                              : Advanced Audio Codec
Format profile                           : HE-AAC / LC
Format settings                          : Explicit
Codec ID                                 : A_AAC-2
Duration                                 : 1 h 37 min
Bit rate                                 : 96.0 kb/s
Channel(s)                               : 2 channels
Channel positions                        : Front: L R
Sampling rate                            : 48.0 kHz / 24.0 kHz
Frame rate                               : 23.438 FPS (1024 SPF)
Compression mode                         : Lossy
Stream size                              : 65.8 MiB (6%)
Language                                 : English
Default                                  : Yes
Forced                                   : No

Text
ID                                       : 3
Format                                   : UTF-8
Codec ID                                 : S_TEXT/UTF8
Codec ID/Info                            : UTF-8 Plain Text
Duration                                 : 1 h 32 min
Bit rate                                 : 54 b/s
Count of elements                        : 1118
Stream size                              : 36.8 KiB (0%)
Language                                 : English
Default                                  : Yes
Forced                                   : No

Menu
00:00:00.000                             : en:1
00:04:01.241                             : en:2
00:12:11.773                             : en:3
00:18:54.133                             : en:4
00:26:30.756                             : en:5
00:29:32.938                             : en:6
00:36:11.294                             : en:7
00:41:59.976                             : en:8
00:48:26.278                             : en:9
00:53:37.965                             : en:10
01:01:42.949                             : en:11
01:07:06.773                             : en:12
01:11:59.565                             : en:13
01:17:18.467                             : en:14
01:24:25.936                             : en:15
01:31:53.842                             : en:16




           

Category:Movies > WEB-HD
Lang:English  English
Total Size:1.07 GB
Info Hash:743aa88f98fd0d9d24cbcb3e1fee06057a6609b0
Added By:Freaky
Date Added:05-04-2018 16:15:12
Views:441
Hits:24

Download Torrent

Ratings:Not Yet Rated (Log in to rate it)


Tracker:
udp://tracker.pirateparty.gr:6969/announce

This Torrent also has backup trackers
URLSeedersLeechersCompleted
http://tracker.vanitycore.co:6969/announce02207
http://public.popcorn-tracker.org:6969/announce02166


File List: 


Comments

No comments still posted

Powered by 10 Hamsters v2-svn -|- Page Generated In 4.329175 secs.
-|- RSS FEED
Theme By: Nikkbu