[Login] or [Signup]
Login
Username:
Password:
[Signup]
[Recover Account]


Poll


You must be logged in to view polls



Torrent Details For "Eagoler Chokh (2016) Bengali Movie DVDRip x264 AAC { TaRa }.mkv"

Eagoler Chokh (2016) Bengali Movie DVDRip x264 AAC { TaRa }.mkv

Download this torrent | Magnet Download
Health:
Seeds: 0
Leechers: 0
Completed:
Last Checked: 11-11-2018 03:22:46
External Torrent
Update Stats
Download Magnet


Poster


Watch-Free-HD     Download

Details
Name:Eagoler Chokh (2016) Bengali Movie DVDRip x264 AAC { TaRa }.mkv
Description:

Quote:

Eagoler Chokh (2016) Bengali Movie DVDRip x264 AAC { TaRa }.mkv


===================================================================
General
Complete name               : Eagoler Chokh (2016) Bengali Movie DVDRip x264 AAC { TaRa }.mkv
Format                      : Matroska
Format version              : Version 4 / Version 2
File size                   : 698 MiB
Duration                    : 1 h 57 min
Overall bit rate mode       : Variable
Overall bit rate            : 834 kb/s
===================================================================
Video
ID                          : 1
Format                      : AVC
Format/Info                 : Advanced Video Codec
Format profile              : [email protected]
Format settings, CABAC      : Yes
Format settings, ReFrames   : 8 frames
Codec ID                    : V_MPEG4/ISO/AVC
Duration                    : 1 h 57 min
Bit rate mode               : Variable
Bit rate                    : 703 kb/s
Maximum bit rate            : 17.5 Mb/s
Width                       : 720 pixels
Height                      : 304 pixels
Display aspect ratio        : 2.35:1
Frame rate mode             : Variable
Frame rate                  : 23.976 (24000/1001) FPS
Color space                 : YUV
Chroma subsampling          : 4:2:0
Bit depth                   : 8 bits
Scan type                   : Progressive
Bits/(Pixel*Frame)          : 0.134
Stream size                 : 589 MiB (84%)
Title                       : .....::::: TaRa :::::.....
Language                    : Bengali
Default                     : Yes
Forced                      : No
===================================================================
Audio
ID                          : 2
Format                      : AAC
Format/Info                 : Advanced Audio Codec
Format profile              : HE-AAC / LC
Codec ID                    : A_AAC
Duration                    : 1 h 57 min
Bit rate                    : 128 kb/s
Channel(s)                  : 2 channels
Channel positions           : Front: L R
Sampling rate               : 48.0 kHz / 24.0 kHz
Frame rate                  : 23.438 FPS (1024 spf)
Compression mode            : Lossy
Delay relative to video     : 31 ms
Stream size                 : 107 MiB (15%)
Title                       : .....::::: TaRa :::::.....
Language                    : Bengali
Default                     : Yes
Forced                      : No
===================================================================













Category:Movies > Bengali
Lang:Bengali  Bengali
Total Size:698.37 MB
Info Hash:ca6ffee7957aea23c6b4a258a2d14dc810cb61a8
Added By:SkTaRa
Date Added:27-03-2017 15:51:38
Views:937
Hits:140

Download Torrent

Ratings:Not Yet Rated (Log in to rate it)

  


Tracker:
udp://tracker.ccc.de:80/announce

This Torrent also has backup trackers
URLSeedersLeechersCompleted
http://tracker.dler.org:6969/announce000
http://ipv4.tracker.harry.lu:80/announce010


File List: 


Comments

<< Previous      Next >>
1 - 1

[Report] Posted: 18-04-2017 at 18:24:00
sumanta4u



Uploaded: 0.00 B
Downloaded: 0.00 B
Ratio: ---

thanks

1 - 1
<< Previous      Next >>


Powered by 10 Hamsters v2-svn -|- Page Generated In 1.661058 secs.
-|- RSS FEED
Theme By: Nikkbu