[Login] or [Signup]
Login
Username:
Password:
[Signup]
[Recover Account]


Poll


You must be logged in to view polls



Torrent Details For "Romeo Ranjha (2014) [Punjabi] 720p Web-HD AVC AAC - Hon3y [Exclusive]"

Romeo Ranjha (2014) [Punjabi] 720p Web-HD AVC AAC - Hon3y [Exclusive]

Download this torrent | Magnet Download
Health:
Seeds: 0
Leechers: 2
Completed:
Last Checked: 12-10-2018 19:28:14
External Torrent
Update Stats
Download Magnet


Poster


iMDB
Imdb Picture Title: Romeo Ranjha
Year: 2014
Votes: 59
Rating: 5.3/10
Language: Panjabi
Country: India, Canada
All Genres: Action, Comedy, Romance
Plot Outline: The movie revolves around two common boys who travel from India to Thailand for success and money. How they cheat dons in Thailand and rob. The movie is a fast paced thriller showing the ...
Director: Navaniat Singh
Writing By: Dheeraj Rattan,Amberdeep Singh,
Produced By: Gunbir Singh Sidhu,Manmord Sidhu,
Music: Jatinder Shah
Plot:

The movie revolves around two common boys who travel from India to Thailand for success and money. How they cheat dons in Thailand and rob. The movie is a fast paced thriller showing the fun filled bromance between Rambo and Ranjha. It will surely take you on a thrill ride full of fun and joy.

- Written by Manmord Sidhu
Cast:
Jazzy B. as
Garry Sandhu as
Monica Bedi as
Parul Gulati as Preet
Yograj Singh as
Aman Grewal as
Rana Ranbir as
Gopi Bhalla as
Sanga Jagir as
Rana Jung Bahadur as


Watch-Free-HD     Download

Details
Name:Romeo Ranjha (2014) [Punjabi] 720p Web-HD AVC AAC - Hon3y [Exclusive]
Description:
Romeo Ranjha (2014) [Punjabi] 720p Web-HD AVC AAC - Hon3y [Exclusive]


Format                      : Matroska
File size                   : 2.43 GiB
Duration                    : 2 h 3 min
Overall bit rate            : 2 820 kb/s

Video
ID                          : 1
Format                      : AVC
Format/Info                 : Advanced Video Codec
Format profile              : [email protected]
Format settings, CABAC      : No
Format settings, ReFrames   : 1 frame
Codec ID                    : V_MPEG4/ISO/AVC
Duration                    : 2 h 3 min
Bit rate                    : 2 690 kb/s
Width                       : 1 280 pixels
Height                      : 538 pixels
Display aspect ratio        : 2.40:1
Frame rate mode             : Constant
Frame rate                  : 24.000 FPS
Stream size                 : 2.32 GiB (95%)

Audio
ID                          : 2
Format                      : AAC
Format/Info                 : Advanced Audio Codec
Format profile              : LC
Codec ID                    : A_AAC
Duration                    : 2 h 3 min
Bit rate                    : 127 kb/s
Channel(s)                  : 2 channels
Channel positions           : Front: L R
Sampling rate               : 44.1 kHz
Frame rate                  : 43.066 FPS (1024 spf)
Stream size                 : 112 MiB (5%)















Category:Movies > Bollywood
Lang:Punjabi
Total Size:2.43 GB
Info Hash:484011b31ceed9249b939a53fa683e332eba0cce
Added By:Hon3y
Date Added:08-06-2017 10:20:57
Views:456
Hits:106

Download Torrent

Ratings:Not Yet Rated (Log in to rate it)


Tracker:
udp://tracker.coppersurfer.tk:6969/announce


File List: 


Comments

No comments still posted

Powered by 10 Hamsters v2-svn -|- Page Generated In 2.583078 secs.
-|- RSS FEED
Theme By: Nikkbu