[Login] or [Signup]
Login
Username:
Password:
[Signup]
[Recover Account]


Poll


You must be logged in to view polls



Torrent Details For "Race Gurram (Kurradu) (2009) Hindi Dubbed 720p HDRip x264 AAC - MovCr"

Race Gurram (Kurradu) (2009) Hindi Dubbed 720p HDRip x264 AAC - MovCr

Download this torrent | Magnet Download
Health:
Seeds: 0
Leechers: 11
Completed:
Last Checked: 16-11-2018 07:01:44
External Torrent
Update Stats
Download Magnet


Poster


iMDB
Imdb Picture Title: Kurradu
Year: 2009
Runtime: 133 minutes
Votes: 46
Rating: 4.3/10
Language: Telugu
Country: India
All Genres: Action
Plot Outline: Varun is a youngster from a middle class family. He is passionate about bikes and it's his dream to own a bike. Varun buys a bike and uses it positively to get a job of recovery agent for a...
Director: Sandeep Gunnam
Writing By: Prasad Thota,
Produced By: Kiran,
Music: Achu
Cast:
Varun Sandesh as Varun
Ali as
Tanikella Bharani as
M.S. Narayana as
Pragathi as
Neha Sharma as
Surekha Vani as
Narsing Yadav as


Watch-Free-HD     Download

Details
Name:Race Gurram (Kurradu) (2009) Hindi Dubbed 720p HDRip x264 AAC - MovCr
Description:
Our Site URL :  http:movcr.com

Race Gurram (Kurradu) (2009) Hindi Dubbed 720p HDRip x264 AAC - MovCr

 http://www.imdb.com/title/tt1605739/

 

General
Complete name                            : www.movcr.com - Race Gurram (Kurradu) (2009) Hindi Dubbed 720p HDRip x264 AAC - MovCr.mkv
Format                                   : Matroska
Format version                           : Version 4 / Version 2
File size                                : 1.04 GiB
Duration                                 : 1 h 49 min
Overall bit rate                         : 1 361 kb/s
Movie name                               : www.movcr.com
Encoded date                             : UTC 2018-03-31 05:20:52
Writing application                      : mkvmerge v9.5.0 ('Quiet Fire') 64bit
Writing library                          : libebml v1.3.4 + libmatroska v1.4.5

Video
ID                                       : 1
Format                                   : AVC
Format/Info                              : Advanced Video Codec
Format profile                           : [email protected]
Format settings                          : CABAC / 3 Ref Frames
Format settings, CABAC                   : Yes
Format settings, RefFrames               : 3 frames
Codec ID                                 : V_MPEG4/ISO/AVC
Duration                                 : 1 h 49 min
Bit rate                                 : 1 234 kb/s
Width                                    : 1 280 pixels
Height                                   : 720 pixels
Display aspect ratio                     : 16:9
Frame rate mode                          : Constant
Frame rate                               : 25.000 FPS
Color space                              : YUV
Chroma subsampling                       : 4:2:0
Bit depth                                : 8 bits
Scan type                                : Progressive
Bits/(Pixel*Frame)                       : 0.054
Stream size                              : 969 MiB (91%)
Title                                    : www.movcr.com
Default                                  : Yes
Forced                                   : No
Color range                              : Limited
Color primaries                          : BT.709
Transfer characteristics                 : BT.709
Matrix coefficients                      : BT.709

Audio
ID                                       : 2
Format                                   : AAC
Format/Info                              : Advanced Audio Codec
Format profile                           : LC
Codec ID                                 : A_AAC-2
Duration                                 : 1 h 49 min
Bit rate                                 : 126 kb/s
Channel(s)                               : 2 channels
Channel positions                        : Front: L R
Sampling rate                            : 44.1 kHz
Frame rate                               : 43.066 FPS (1024 SPF)
Compression mode                         : Lossy
Stream size                              : 98.6 MiB (9%)
Title                                    : www.movcr.com
Language                                 : Hindi
Default                                  : Yes
Forced                                   : No



 
 
 
 
 
 
 
 
 
Category:Movies > South Dub
Lang:Hindi
Total Size:1.04 GB
Info Hash:34da25b1772b602c72fbde8072680468199edfb2
Added By:MAZE
Date Added:30-03-2018 16:28:13
Views:1,488
Hits:147

Download Torrent

Ratings:Not Yet Rated (Log in to rate it)


Tracker:
udp://tracker.coppersurfer.tk:6969/announce

This Torrent also has backup trackers
URLSeedersLeechersCompleted
http://tracker2.itzmx.com:6961/announce030
http://tracker.vanitycore.co:6969/announce010
http://tracker.torrentyorg.pl:80/announce184
http://tracker.tfile.me:80/announce000
http://tracker.mg64.net:6881/announce0124
http://tracker.electro-torrent.pl:80/announce162
http://torrentsmd.me:8080/announce000
http://share.camoe.cn:8080/announce000
http://servandroidkino.ru:80/announce000
http://p4p.arenabg.com:1337/announce000
http://open.acgtracker.com:1096/announce000
http://omg.wtftrackr.pw:1337/announce000
http://mgtracker.org:6969/announce0124
http://bt.dl1234.com:80/announce037
http://agusiq-torrents.pl:6969/announce000
http://104.238.198.186:8000/announce022


File List: 


Comments

No comments still posted

Powered by 10 Hamsters v2-svn -|- Page Generated In 1.637492 secs.
-|- RSS FEED
Theme By: Nikkbu