[Login] or [Signup]
Login
Username:
Password:
[Signup]
[Recover Account]


Poll


You must be logged in to view polls



Torrent Details For "The.Last.Flight.of.Noahs.Ark.1980.1080p.BluRay.REMUX.AVC.DD2.0-FGT"

The.Last.Flight.of.Noahs.Ark.1980.1080p.BluRay.REMUX.AVC.DD2.0-FGT

Download this torrent | Magnet Download
Health:
Seeds: 0
Leechers: 2
Completed:
Last Checked: 14-11-2018 06:18:59
External Torrent
Update Stats
Download Magnet


Poster


iMDB
Imdb Picture Title: The Last Flight of Noah's Ark
Year: 1980
Runtime: 97 minutes
Votes: 889
Rating: 5.8/10
Language: English
Country: USA
All Genres: Adventure, Family
Plot Outline: When a plane carrying various animals makes a forced landing on a desert island, the only chance to escape is to convert the plane into a boat.
Tagline: On a wing and a prayer... they built a legend.
Director: Charles Jarrott
Writing By: Ernest K. Gann,Steven W. Carabatsos,Sandy Glass,George Arthur Bloom,
Produced By: Ron Miller,Jan Williams,
Music: Maurice Jarre
Plot:

When Noah Dugan agrees to fly missionary Bernadette Lafleur and her cargo of animals to a remote island, its only because he is on the run from a couple of bookies. What neither of them know is that two of Miss Lafleur's young students have stowed away with the animals & Miss Lafleur's transistor radio has interfered with the plane's instruments and they're all now miles off course. After a forced landing on a remote island, Dugan, Bernadette, Bobby and Julie discover that they are not alone. Together with two Japanese soldiers who have been stranded on the island since WWII, they must turn the plane into a seaworthy boat if they are ever to make it home. When Bobby and Julie insist that they cannot leave the animals behind, the converted plane truly becomes a second Noah's Ark

- Written by April M. Cheek <[email protected]>

When a plane carrying various animals makes a forced landing on a desert island, the only chance to escape is to convert the plane into a boat.

- Written by Kenneth Chisholm
Cast:
Elliott Gould as Noah Dugan
Geneviève Bujold as Bernadette Lafleur
Ricky Schroder as Bobby
Vincent Gardenia as Stoney
Tammy Lauren as Julie
John Fujioka as Cleveland
Yuki Shimoda as Hiro
John P. Ryan as Coslough
Dana Elcar as Benchley
Ruth Manning as Charlotte Braithwaite


Watch-Free-HD     Download

Details
Name:The.Last.Flight.of.Noahs.Ark.1980.1080p.BluRay.REMUX.AVC.DD2.0-FGT
Description:
MediaInfo

Video
ID                                       : 1
Format                                   : AVC
Format/Info                              : Advanced Video Codec
Format profile                           : [email protected]
Format settings, CABAC                   : Yes
Format settings, ReFrames                : 4 frames
Codec ID                                 : V_MPEG4/ISO/AVC
Duration                                 : 1h 37mn
Bit rate mode                            : Variable
Bit rate                                 : 27.2 Mbps
Maximum bit rate                         : 35.0 Mbps
Width                                    : 1 920 pixels
Height                                   : 1 080 pixels
Display aspect ratio                     : 16:9
Frame rate mode                          : Constant
Frame rate                               : 23.976 (24000/1001) fps
Color space                              : YUV
Chroma subsampling                       : 4:2:0
Bit depth                                : 8 bits
Scan type                                : Progressive
Bits/(Pixel*Frame)                       : 0.546
Stream size                              : 18.6 GiB (97%)
Title                                    : The.Last.Flight.of.Noahs.Ark.1980.1080p.BluRay.REMUX.AVC.DD2.0-FGT
Language                                 : English
Default                                  : No
Forced                                   : No

Audio
ID                                       : 2
Format                                   : AC-3
Format/Info                              : Audio Coding 3
Mode extension                           : CM (complete main)
Format settings, Endianness              : Big
Codec ID                                 : A_AC3
Duration                                 : 1h 37mn
Bit rate mode                            : Constant
Bit rate                                 : 320 Kbps
Channel(s)                               : 2 channels
Channel positions                        : Front: L R
Sampling rate                            : 48.0 KHz
Frame rate                               : 31.250 fps (1536 spf)
Compression mode                         : Lossy
Stream size                              : 224 MiB (1%)
Title                                    : The.Last.Flight.of.Noahs.Ark.1980.1080p.BluRay.REMUX.AVC.DD2.0-FGT
Language                                 : English
Default                                  : Yes
Forced                                   : No

Text
ID                                       : 3
Format                                   : PGS
Muxing mode                              : zlib
Codec ID                                 : S_HDMV/PGS
Codec ID/Info                            : Picture based subtitle format used on BDs/HD-DVDs
Title                                    : English-PGS
Language                                 : English
Default                                  : Yes
Forced                                   : No

Menu
00:00:00.000                             : en:Chapter 01
00:12:01.470                             : en:Chapter 02
00:17:26.295                             : en:Chapter 03
00:25:05.003                             : en:Chapter 04
00:31:18.626                             : en:Chapter 05
00:42:29.547                             : en:Chapter 06
00:52:07.624                             : en:Chapter 07
00:59:06.918                             : en:Chapter 08
01:07:38.054                             : en:Chapter 09
01:17:39.905                             : en:Chapter 10
01:29:19.854                             : en:Chapter 11
01:35:19.964                             : en:Chapter 12



  
Category:Movies > Remux
Lang:Hindi
Total Size:19.17 GB
Info Hash:f6febf04964ba7a436a74eae8f2f2a33e18f519f
Added By:Agent47
Date Added:07-06-2017 14:26:19
Views:372
Hits:56

Download Torrent

Ratings:Not Yet Rated (Log in to rate it)


Tracker:
http://tracker.trackerfix.com:80/announce


File List: 


Comments

No comments still posted

Powered by 10 Hamsters v2-svn -|- Page Generated In 0.009438 secs.
-|- RSS FEED
Theme By: Nikkbu