[Login] or [Signup]
Login
Username:
Password:
[Signup]
[Recover Account]


Poll


You must be logged in to view polls



Torrent Details For "WWE Monday Night Raw (26th March 2018) Full Show HDTV 450MB MKV[HDFilmBoss.Com]"

WWE Monday Night Raw (26th March 2018) Full Show HDTV 450MB MKV[HDFilmBoss.Com]

Download this torrent | Magnet Download
Health:
Seeds: 0
Leechers: 8
Completed:
Last Checked: 27-03-2018 11:12:36
External Torrent
Update Stats
Download Magnet


Poster


Watch-Free-HD     Download

Details
Name:WWE Monday Night Raw (26th March 2018) Full Show HDTV 450MB MKV[HDFilmBoss.Com]
Description:
General
Complete name                            : C:WWE Monday Night Raw (26th March 2018) Full Show HDTV 450MB-HDFilmBoss.Com.mp4
Format                                   : MPEG-4
Format profile                           : Base Media
Codec ID                                 : isom (isom/iso2/avc1/mp41)
File size                                : 455 MiB
Duration                                 : 2 h 10 min
Overall bit rate                         : 489 kb/s
Writing application                      : Lavf57.83.100

Video
ID                                       : 1
Format                                   : AVC
Format/Info                              : Advanced Video Codec
Format profile                           : [email protected]
Format settings                          : CABAC / 4 Ref Frames
Format settings, CABAC                   : Yes
Format settings, RefFrames               : 4 frames
Codec ID                                 : avc1
Codec ID/Info                            : Advanced Video Coding
Duration                                 : 2 h 10 min
Bit rate                                 : 436 kb/s
Width                                    : 704 pixels
Height                                   : 400 pixels
Display aspect ratio                     : 16:9
Frame rate mode                          : Constant
Frame rate                               : 25.000 FPS
Color space                              : YUV
Chroma subsampling                       : 4:2:0
Bit depth                                : 8 bits
Scan type                                : Progressive
Bits/(Pixel*Frame)                       : 0.062
Stream size                              : 404 MiB (89%)
Writing library                          : x264 core 148 r2643 5c6570

Audio
ID                                       : 2
Format                                   : AAC
Format/Info                              : Advanced Audio Codec
Format profile                           : LC
Codec ID                                 : mp4a-40-2
Duration                                 : 2 h 10 min
Bit rate mode                            : Constant
Bit rate                                 : 48.0 kb/s
Channel(s)                               : 2 channels
Channel(s)_Original                      : 1 channel
Channel positions                        : Front: C
Sampling rate                            : 44.1 kHz
Frame rate                               : 43.066 FPS (1024 SPF)
Compression mode                         : Lossy
Stream size                              : 44.6 MiB (10%)
Default                                  : Yes
Alternate group                          : 1



Category:TV > Sports
Lang:English  English
Total Size:455.19 MB
Info Hash:3f15c8b03c87f79ab2e91b185359dc8235661468
Added By:HDFilmBoss
Date Added:27-03-2018 06:17:39
Views:758
Hits:438

Download Torrent

Ratings:Not Yet Rated (Log in to rate it)

  


Tracker:
udp://tracker.coppersurfer.tk:6969/announce


File List: 


Comments

No comments still posted

Powered by 10 Hamsters v2-svn -|- Page Generated In 0.320964 secs.
-|- RSS FEED
Theme By: Nikkbu