[Login] or [Signup]
Login
Username:
Password:
[Signup]
[Recover Account]


Poll


You must be logged in to view polls



Torrent Details For "Patriots.Day.2016.2160p.BluRay.REMUX.HEVC.DTS-X.7.1-FGT"

Patriots.Day.2016.2160p.BluRay.REMUX.HEVC.DTS-X.7.1-FGT

Download this torrent | Magnet Download
Health:
Seeds: 2
Leechers: 1
Completed:
Last Checked: 16-11-2018 20:35:34
External Torrent
Update Stats
Download Magnet


Poster


iMDB
Imdb Picture Title: Patriots Day
Year: 2016
Runtime: 133 minutes
Votes: 41379
Rating: 7.4/10
Language: English, Chinese, Arabic
Country: Hong Kong, USA
All Genres: Crime, Drama, History, Thriller
Plot Outline: The story of the 2013 Boston Marathon bombing and the aftermath, which includes the city-wide manhunt to find the terrorists responsible.
Tagline: The inside story of the world's greatest manhunt.
Director: Peter Berg
Writing By: Peter Berg,Matt Cook,Joshua Zetumer,Peter Berg,Matt Cook,Paul Tamasy,Eric Johnson,
Produced By: Dorothy Aufiero,Dylan Clark,Lauren Downey,Louis G. Friedman,Eric Johnson,Daphne Lambrinou,Stephen Levinson,Joseph J. Micucci,Nicholas David Nesbitt,Hutch Parker,John Logan Pierson,Michael Radutzky,Bo Shen,Stephen Stapinski,Scott Stuber,Paul Tamasy,Mark Wahlberg,Dan Wilson,Shixing Zhou,
Music: Trent Reznor Atticus Ross
Plot:

On April 15, 2013 Boston, Massachusetts, Police Sgt, Tommy Saunders is pulling security duty on the annual Boston Marathon when the Tsarnaev brothers strike with their homemade bombs in an act of terrorism. In the resulting chaos as the wounded are cared for, Saunders and his comrades join forces with the FBI to get to the bottom of this attack. As the investigation continues, the Tsarnaev brothers realize that the authorities are close to identifying them and attempt to flee the city to continue their fanatical mayhem. To stop them, a police manhunt is performed that would have bloody confrontations and a massive dragnet shutting down the City of Boston to make sure there is no escape from the law.

- Written by Kenneth Chisholm ([email protected])

The story of the 2013 Boston Marathon bombing and the aftermath, which includes the city-wide manhunt to find the terrorists responsible.

- Written by Kenneth Chisholm
Cast:
Mark Wahlberg as Tommy Saunders
Dicky Eklund Jr. as Young Police Officers
Michael Marchand as Young Police Officers
Rhet Kidd as Harrold
John Goodman as Commissioner Ed Davis
Frank Czarnowski as Officer Outside HarroldÂ’s Apartment
Christopher O'Shea as Patrick Downes
Rachel Brosnahan as Jessica Kensky
Jake Picking as Officer Sean Collier
Lana Condor as Li
Trailers:
Now Playing
Trailer #2
Trailer 2
Official Trailer
Teaser Trailer


Watch-Free-HD     Download

Details
Name:Patriots.Day.2016.2160p.BluRay.REMUX.HEVC.DTS-X.7.1-FGT
Description:
MediaInfo

Video
ID                                       : 1
Format                                   : HEVC
Format/Info                              : High Efficiency Video Coding
Format profile                           : Main [email protected]@High
Codec ID                                 : V_MPEGH/ISO/HEVC
Duration                                 : 2h 13mn
Bit rate                                 : 66.1 Mbps
Width                                    : 3 840 pixels
Height                                   : 2 160 pixels
Display aspect ratio                     : 16:9
Frame rate mode                          : Constant
Frame rate                               : 23.976 (24000/1001) fps
Color space                              : YUV
Chroma subsampling                       : 4:2:0 (Type 2)
Bit depth                                : 10 bits
Bits/(Pixel*Frame)                       : 0.332
Stream size                              : 61.5 GiB (91%)
Title                                    : Patriots.Day.2016.2160p.BluRay.REMUX.HEVC.DTS-X.7.1-FGT
Language                                 : English
Default                                  : Yes
Forced                                   : No
Color range                              : Limited
Color primaries                          : BT.2020
Transfer characteristics                 : SMPTE ST 2084
Matrix coefficients                      : BT.2020 non-constant
Mastering display color primaries        : R: x=0.680000 y=0.320000, G: x=0.265000 y=0.690000, B: x=0.150000 y=0.060000, White point: x=0.312680 y=0.329000
Mastering display luminance              : min: 0.0000 cd/m2, max: 1000.0000 cd/m2
Maximum Content Light Level              : 1000 cd/m2
Maximum Frame-Average Light Level        : 510 cd/m2

Audio #1
ID                                       : 2
Format                                   : DTS
Format/Info                              : Digital Theater Systems
Format profile                           : X / MA / Core
Mode                                     : 16
Format settings, Endianness              : Big
Codec ID                                 : A_DTS
Duration                                 : 2h 13mn
Bit rate mode                            : Variable / Variable / Constant
Bit rate                                 : 4 280 Kbps / 4 280 Kbps / 1 509 Kbps
Channel(s)                               : Object Based / 8 channels / 6 channels
Channel positions                        : Object Based / Front: L C R, Side: L R, Back: L R, LFE / Front: L C R, Side: L R, LFE
Sampling rate                            :  / 48.0 KHz / 48.0 KHz
Frame rate                               : 93.750 fps (512 spf)
Bit depth                                :  / 24 bits / 24 bits
Compression mode                         :  / Lossless / Lossy
Stream size                              : 3.98 GiB (6%)
Title                                    : Patriots.Day.2016.2160p.BluRay.REMUX.HEVC.DTS-X.7.1-FGT
Language                                 : English
Default                                  : Yes
Forced                                   : No

Audio #2
ID                                       : 3
Format                                   : AC-3
Format/Info                              : Audio Coding 3
Mode extension                           : CM (complete main)
Format settings, Endianness              : Big
Codec ID                                 : A_AC3
Duration                                 : 2h 13mn
Bit rate mode                            : Constant
Bit rate                                 : 640 Kbps
Channel(s)                               : 6 channels
Channel positions                        : Front: L C R, Side: L R, LFE
Sampling rate                            : 48.0 KHz
Frame rate                               : 31.250 fps (1536 spf)
Compression mode                         : Lossy
Stream size                              : 610 MiB (1%)
Title                                    : Patriots.Day.2016.2160p.BluRay.REMUX.HEVC.DTS-X.7.1-FGT
Language                                 : Spanish
Default                                  : No
Forced                                   : No

Audio #3
ID                                       : 4
Format                                   : AC-3
Format/Info                              : Audio Coding 3
Mode extension                           : CM (complete main)
Format settings, Endianness              : Big
Codec ID                                 : A_AC3
Duration                                 : 2h 13mn
Bit rate mode                            : Constant
Bit rate                                 : 640 Kbps
Channel(s)                               : 6 channels
Channel positions                        : Front: L C R, Side: L R, LFE
Sampling rate                            : 48.0 KHz
Frame rate                               : 31.250 fps (1536 spf)
Compression mode                         : Lossy
Stream size                              : 610 MiB (1%)
Title                                    : Patriots.Day.2016.2160p.BluRay.REMUX.HEVC.DTS-X.7.1-FGT
Language                                 : French
Default                                  : No
Forced                                   : No

Audio #4
ID                                       : 5
Format                                   : AC-3
Format/Info                              : Audio Coding 3
Format profile                           : Dolby Digital
Mode extension                           : CM (complete main)
Format settings, Endianness              : Big
Codec ID                                 : A_AC3
Duration                                 : 2h 13mn
Bit rate mode                            : Constant
Bit rate                                 : 224 Kbps
Channel(s)                               : 2 channels
Channel positions                        : Front: L R
Sampling rate                            : 48.0 KHz
Frame rate                               : 31.250 fps (1536 spf)
Compression mode                         : Lossy
Stream size                              : 213 MiB (0%)
Title                                    : Patriots.Day.2016.2160p.BluRay.REMUX.HEVC.DTS-X.7.1-FGT
Language                                 : English
Default                                  : No
Forced                                   : No

Audio #5
ID                                       : 6
Format                                   : DTS
Format/Info                              : Digital Theater Systems
Mode                                     : 16
Format settings, Endianness              : Big
Codec ID                                 : A_DTS
Duration                                 : 2h 13mn
Bit rate mode                            : Constant
Bit rate                                 : 768 Kbps
Channel(s)                               : 2 channels
Channel positions                        : Front: L R
Sampling rate                            : 48.0 KHz
Frame rate                               : 93.750 fps (512 spf)
Bit depth                                : 24 bits
Compression mode                         : Lossy
Stream size                              : 732 MiB (1%)
Title                                    : Patriots.Day.2016.2160p.BluRay.REMUX.HEVC.DTS-X.7.1-FGT
Language                                 : English
Default                                  : No
Forced                                   : No

Text #1
ID                                       : 7
Format                                   : PGS
Muxing mode                              : zlib
Codec ID                                 : S_HDMV/PGS
Codec ID/Info                            : Picture based subtitle format used on BDs/HD-DVDs
Duration                                 : 2h 12mn
Bit rate                                 : 20.8 Kbps
Count of elements                        : 4050
Stream size                              : 19.7 MiB (0%)
Title                                    : English-PGS
Language                                 : English
Default                                  : Yes
Forced                                   : No

Text #2
ID                                       : 8
Format                                   : PGS
Muxing mode                              : zlib
Codec ID                                 : S_HDMV/PGS
Codec ID/Info                            : Picture based subtitle format used on BDs/HD-DVDs
Duration                                 : 2h 12mn
Bit rate                                 : 21.6 Kbps
Count of elements                        : 4732
Stream size                              : 20.5 MiB (0%)
Title                                    : French-PGS
Language                                 : French
Default                                  : No
Forced                                   : No

Text #3
ID                                       : 9
Format                                   : PGS
Muxing mode                              : zlib
Codec ID                                 : S_HDMV/PGS
Codec ID/Info                            : Picture based subtitle format used on BDs/HD-DVDs
Duration                                 : 2h 12mn
Bit rate                                 : 18.5 Kbps
Count of elements                        : 3684
Stream size                              : 17.6 MiB (0%)
Title                                    : English-SDH-PGS
Language                                 : English
Default                                  : No
Forced                                   : No

Text #4
ID                                       : 10
Format                                   : PGS
Muxing mode                              : zlib
Codec ID                                 : S_HDMV/PGS
Codec ID/Info                            : Picture based subtitle format used on BDs/HD-DVDs
Duration                                 : 2h 3mn
Bit rate                                 : 871 bps
Count of elements                        : 154
Stream size                              : 790 KiB (0%)
Title                                    : French-FORCED-PGS
Language                                 : French
Default                                  : No
Forced                                   : No

Text #5
ID                                       : 11
Format                                   : PGS
Muxing mode                              : zlib
Codec ID                                 : S_HDMV/PGS
Codec ID/Info                            : Picture based subtitle format used on BDs/HD-DVDs
Duration                                 : 2h 11mn
Bit rate                                 : 788 bps
Count of elements                        : 136
Stream size                              : 759 KiB (0%)
Title                                    : Spanish-FORCED-PGS
Language                                 : Spanish
Default                                  : No
Forced                                   : No


  
Category:Movies > Remux
Lang:English  English
Total Size:67.62 GB
Info Hash:0542bc98cb3f680e4e16b602f8dbad60ce53ba9a
Added By:Agent47
Date Added:07-06-2017 00:49:05
Views:380
Hits:64

Download Torrent

Ratings:Not Yet Rated (Log in to rate it)


Tracker:
http://tracker.trackerfix.com:80/announce


File List: 


Comments

No comments still posted

Powered by 10 Hamsters v2-svn -|- Page Generated In 0.030756 secs.
-|- RSS FEED
Theme By: Nikkbu