[Login] or [Signup]
Login
Username:
Password:
[Signup]
[Recover Account]


Poll


You must be logged in to view polls



Torrent Details For "John.Wick.2014.1080p.BluRay.REMUX.AVC.DTS-HD.MA.TrueHD.7.1.Atmos-FGT"

John.Wick.2014.1080p.BluRay.REMUX.AVC.DTS-HD.MA.TrueHD.7.1.Atmos-FGT

Download this torrent | Magnet Download
Health:
Seeds: 0
Leechers: 18
Completed: 20 
Last Checked: 16-09-2018 10:23:36
External Torrent
Update Stats
Download Magnet


Poster


iMDB
Imdb Picture Title: John Wick
Year: 2014
Runtime: 101 minutes
Votes: 324549
Rating: 7.3/10
Language: English, Russian, Hungarian
Country: USA, China
All Genres: Action, Crime, Thriller
Plot Outline: An ex-hitman comes out of retirement to track down the gangsters that took everything from him.
Tagline: Don't Set Him Off!
Director: Chad Stahelski
David Leitch
Writing By: Derek Kolstad,
Produced By: Darren Blumenthal,Sam X. Eyde,Tara Finegan,Kevin Scott Frakes,Basil Iwanyk,Peter Lawson,Erica Lee,David Leitch,Noel Lohr,Eva Longoria,Doug Monticciolo,Andrew C. Robinson,Raj Brinder Singh,Jared Underwood,Mike Upton,Joseph Vincenti,Jamie Wing,Mike Witherill,Stephen Hamel,Keanu Reeves,Chad Stahelski,
Music: Tyler Bates Joel J. Richard
Plot:

A man called John Wick is grieving the loss of his beloved wife; Helen that has recently died of an illness. He goes to her funeral and receives the condolences from his old friend Marcus. At home, John receives a special delivery which is the last gift from his wife, an adorable puppy that becomes his pride and joy. One day, John goes to the gas station in his '69 Mustang and the Russian; Iosef Tarasov asks the price he wants for his car. John advises that the car is not for sale and returns home. During the night, Iosef, who is the son of the powerful Russian mobster Viggo, breaks into John's house with other gangsters and beat John, kill his precious dog, and steal his car. Iosef learns that John Wick was the unbeatable hit man who used to work for his father. Known as the guy you hire to kill the Boogy Man, Iosef soon realizes that he messed with the wrong person. Now, John Wick has lost everything he loved and wants the head of Iosef. Viggo decides to protect his son at any cost and will pay the price.

- Written by Claudio Carvalho, Rio de Janeiro, Brazil

The wife of glorified retired hit-man John Wick, leaves him a gift in her will after her death. A dog with the same name as her favorite flower: Daisy. Mr. Wick's home is then broken into by the son and goons of his former Russian mobster boss, who render John Wick senseless, steal his car, and kill Daisy his beloved dog. John Wick then proceeds to return to his former job, only his target this time is the Russian mob. 'The entire Russian Mob'.

- Written by Unknownian

An ex-hitman comes out of retirement to track down the gangsters that took everything from him.

- Written by Anonymous
Cast:
Keanu Reeves as John Wick
Michael Nyqvist as Viggo Tarasov
Alfie Allen as Iosef Tarasov
Willem Dafoe as Marcus
Dean Winters as Avi
Adrianne Palicki as Ms. Perkins
Omer Barnea as Gregori
Toby Leonard Moore as Victor
Daniel Bernhardt as Kirill
Bridget Moynahan as Helen
Trailers:
Official Trailer
Trailer #2


Watch-Free-HD     Download

Details
Name:John.Wick.2014.1080p.BluRay.REMUX.AVC.DTS-HD.MA.TrueHD.7.1.Atmos-FGT
Description:
MediaInfo

Video
ID                                       : 1
Format                                   : AVC
Format/Info                              : Advanced Video Codec
Format profile                           : [email protected]
Format settings, CABAC                   : Yes
Format settings, ReFrames                : 4 frames
Codec ID                                 : V_MPEG4/ISO/AVC
Duration                                 : 1h 41mn
Bit rate mode                            : Variable
Maximum bit rate                         : 36.0 Mbps
Width                                    : 1 920 pixels
Height                                   : 1 080 pixels
Display aspect ratio                     : 16:9
Frame rate mode                          : Constant
Frame rate                               : 23.976 (24000/1001) fps
Color space                              : YUV
Chroma subsampling                       : 4:2:0
Bit depth                                : 8 bits
Scan type                                : Progressive
Title                                    : John.Wick.2014.1080p.BluRay.REMUX.AVC.DTS-HD.MA.TrueHD.7.1.Atmos-FGT
Language                                 : English
Default                                  : No
Forced                                   : No

Audio #1
ID                                       : 2
Format                                   : DTS
Format/Info                              : Digital Theater Systems
Format profile                           : MA / Core
Mode                                     : 16
Format settings, Endianness              : Big
Codec ID                                 : A_DTS
Duration                                 : 1h 41mn
Bit rate mode                            : Variable / Constant
Bit rate                                 : Unknown / 1 509 Kbps
Channel(s)                               : 8 channels / 6 channels
Channel positions                        : Front: L C R, Side: L R, Back: L R, LFE / Front: L C R, Side: L R, LFE
Sampling rate                            : 48.0 KHz
Frame rate                               : 93.750 fps (512 spf)
Bit depth                                : 24 bits
Compression mode                         : Lossless / Lossy
Title                                    : John.Wick.2014.1080p.BluRay.REMUX.AVC.DTS-HD.MA.TrueHD.7.1.Atmos-FGT
Language                                 : English
Default                                  : Yes
Forced                                   : No

Audio #2
ID                                       : 3
Format                                   : Atmos / TrueHD
Codec ID                                 : A_TRUEHD
Bit rate mode                            : Variable
Maximum bit rate                         : 6 144 Kbps
Channel(s)                               : Object Based / 8 channels
Channel positions                        : Object Based / Front: L C R, Side: L R, Back: L R, LFE
Sampling rate                            :  / 48.0 KHz
Frame rate                               : 1 200.000 fps (40 spf)
Compression mode                         : Lossless
Title                                    : John.Wick.2014.1080p.BluRay.REMUX.AVC.DTS-HD.MA.TrueHD.7.1.Atmos-FGT
Language                                 : English
Default                                  : No
Forced                                   : No

Audio #3
ID                                       : 4
Format                                   : AC-3
Format/Info                              : Audio Coding 3
Mode extension                           : CM (complete main)
Format settings, Endianness              : Big
Codec ID                                 : A_AC3
Duration                                 : 1h 41mn
Bit rate mode                            : Constant
Bit rate                                 : 640 Kbps
Channel(s)                               : 6 channels
Channel positions                        : Front: L C R, Side: L R, LFE
Sampling rate                            : 48.0 KHz
Frame rate                               : 31.250 fps (1536 spf)
Compression mode                         : Lossy
Stream size                              : 463 MiB (1%)
Title                                    : John.Wick.2014.1080p.BluRay.REMUX.AVC.DTS-HD.MA.TrueHD.7.1.Atmos-FGT
Language                                 : English
Default                                  : No
Forced                                   : No

Audio #4
ID                                       : 5
Format                                   : AC-3
Format/Info                              : Audio Coding 3
Mode extension                           : CM (complete main)
Format settings, Endianness              : Big
Codec ID                                 : A_AC3
Duration                                 : 1h 41mn
Bit rate mode                            : Constant
Bit rate                                 : 640 Kbps
Channel(s)                               : 6 channels
Channel positions                        : Front: L C R, Side: L R, LFE
Sampling rate                            : 48.0 KHz
Frame rate                               : 31.250 fps (1536 spf)
Compression mode                         : Lossy
Stream size                              : 463 MiB (1%)
Title                                    : John.Wick.2014.1080p.BluRay.REMUX.AVC.DTS-HD.MA.TrueHD.7.1.Atmos-FGT
Language                                 : Spanish
Default                                  : No
Forced                                   : No

Audio #5
ID                                       : 6
Format                                   : AC-3
Format/Info                              : Audio Coding 3
Format profile                           : Dolby Digital
Mode extension                           : CM (complete main)
Format settings, Endianness              : Big
Codec ID                                 : A_AC3
Duration                                 : 1h 41mn
Bit rate mode                            : Constant
Bit rate                                 : 224 Kbps
Channel(s)                               : 2 channels
Channel positions                        : Front: L R
Sampling rate                            : 48.0 KHz
Frame rate                               : 31.250 fps (1536 spf)
Compression mode                         : Lossy
Stream size                              : 162 MiB (1%)
Title                                    : John.Wick.2014.1080p.BluRay.REMUX.AVC.DTS-HD.MA.TrueHD.7.1.Atmos-FGT
Language                                 : English
Default                                  : No
Forced                                   : No

Audio #6
ID                                       : 7
Format                                   : AC-3
Format/Info                              : Audio Coding 3
Format profile                           : Dolby Digital
Mode extension                           : CM (complete main)
Format settings, Endianness              : Big
Codec ID                                 : A_AC3
Duration                                 : 1h 41mn
Bit rate mode                            : Constant
Bit rate                                 : 224 Kbps
Channel(s)                               : 2 channels
Channel positions                        : Front: L R
Sampling rate                            : 48.0 KHz
Frame rate                               : 31.250 fps (1536 spf)
Compression mode                         : Lossy
Stream size                              : 162 MiB (1%)
Title                                    : John.Wick.2014.1080p.BluRay.REMUX.AVC.DTS-HD.MA.TrueHD.7.1.Atmos-FGT
Language                                 : English
Default                                  : No
Forced                                   : No

Audio #7
ID                                       : 8
Format                                   : AC-3
Format/Info                              : Audio Coding 3
Format profile                           : Dolby Digital
Mode extension                           : CM (complete main)
Format settings, Endianness              : Big
Codec ID                                 : A_AC3
Duration                                 : 1h 41mn
Bit rate mode                            : Constant
Bit rate                                 : 224 Kbps
Channel(s)                               : 2 channels
Channel positions                        : Front: L R
Sampling rate                            : 48.0 KHz
Frame rate                               : 31.250 fps (1536 spf)
Compression mode                         : Lossy
Stream size                              : 162 MiB (1%)
Title                                    : John.Wick.2014.1080p.BluRay.REMUX.AVC.DTS-HD.MA.TrueHD.7.1.Atmos-FGT
Language                                 : English
Default                                  : No
Forced                                   : No

Text #1
ID                                       : 9
Format                                   : PGS
Muxing mode                              : zlib
Codec ID                                 : S_HDMV/PGS
Codec ID/Info                            : Picture based subtitle format used on BDs/HD-DVDs
Title                                    : English-PGS
Language                                 : English
Default                                  : No
Forced                                   : No

Text #2
ID                                       : 10
Format                                   : PGS
Muxing mode                              : zlib
Codec ID                                 : S_HDMV/PGS
Codec ID/Info                            : Picture based subtitle format used on BDs/HD-DVDs
Title                                    : English-SDH-PGS
Language                                 : English
Default                                  : No
Forced                                   : No

Text #3
ID                                       : 11
Format                                   : PGS
Muxing mode                              : zlib
Codec ID                                 : S_HDMV/PGS
Codec ID/Info                            : Picture based subtitle format used on BDs/HD-DVDs
Title                                    : Spanish-PGS
Language                                 : Spanish
Default                                  : No
Forced                                   : No

Text #4
ID                                       : 12
Format                                   : PGS
Muxing mode                              : zlib
Codec ID                                 : S_HDMV/PGS
Codec ID/Info                            : Picture based subtitle format used on BDs/HD-DVDs
Title                                    : Spanish-FORCED-PGS
Language                                 : Spanish
Default                                  : No
Forced                                   : No

Menu
00:00:00.000                             : en:Chapter 01
00:04:57.505                             : en:Chapter 02
00:12:21.866                             : en:Chapter 03
00:17:07.735                             : en:Chapter 04
00:26:25.166                             : en:Chapter 05
00:32:40.249                             : en:Chapter 06
00:36:24.599                             : en:Chapter 07
00:42:16.033                             : en:Chapter 08
00:45:33.272                             : en:Chapter 09
00:55:02.507                             : en:Chapter 10
00:59:27.564                             : en:Chapter 11
01:06:13.427                             : en:Chapter 12
01:14:15.909                             : en:Chapter 13
01:19:13.039                             : en:Chapter 14
01:27:29.786                             : en:Chapter 15
01:32:24.789                             : en:Chapter 16


   
Category:Movies > Remux
Lang:English  English
Total Size:31.55 GB
Info Hash:e41f87fbb1c897042832115bf687ab6ba46a8c92
Added By:Agent47
Date Added:07-06-2017 00:47:03
Views:335
Hits:59

Download Torrent

Ratings:Not Yet Rated (Log in to rate it)


Tracker:
http://tracker.trackerfix.com:80/announce


File List: 


Comments

No comments still posted

Powered by 10 Hamsters v2-svn -|- Page Generated In 0.129782 secs.
-|- RSS FEED
Theme By: Nikkbu