[Login] or [Signup]
Login
Username:
Password:
[Signup]
[Recover Account]


Poll


You must be logged in to view polls



Torrent Details For "We.Go.On.2016.1080p.BluRay.REMUX.AVC.DTS-HD.MA.5.1-FGT"

We.Go.On.2016.1080p.BluRay.REMUX.AVC.DTS-HD.MA.5.1-FGT

Download this torrent | Magnet Download
Health:
Seeds: 0
Leechers: 4
Completed:
Last Checked: 03-11-2018 09:08:26
External Torrent
Update Stats
Download Magnet


Poster


iMDB
Imdb Picture Title: We Go On
Year: 2016
Runtime: 89 minutes
Votes: 1153
Rating: 6.1/10
Language: English
Country: USA
All Genres: Drama, Horror, Thriller
Plot Outline: Miles Grissom is offers $30,000 to the first person who can prove to him that we go on after death.
Director: Jesse Holland
Andy Mitton
Writing By: Jesse Holland,Andy Mitton,Andy Mitton,Andy Mitton,
Produced By: Hank Abbott,Logan Brown,Marius Haugan,Richard W. King,Laura Lester,Cheryl Myers,Irina Popov,
Music: Andy Mitton
Plot:

Paralyzed by his fear of dying, Miles Grissom takes out an advert offering 30000 dollars in reward money to the first person who can show him evidence of an angel, a demon, or prove that ghosts exist - anything to prove to him that we go on after our deaths. He narrows the responses down to three viable candidates - a scientist, a medium, and a worldly entrepreneur. Along with his protective mother, he embarks on an adventure through Los Angeles that will spiral into an unthinkable nightmare.

Miles Grissom is offers $30,000 to the first person who can prove to him that we go on after death.


Cast:
Annette O'Toole as Charlotte
Clark Freeman as Miles
John Glover as Dr. Ellison
Giovanna Zacarías as Josephina
Laura Heisler as Alice
Jay Dunn as Nelson
Dwight Augustin as Cop
David Bickford as TV Spokesman
Justin Carpenter as Miles' Dad
Norio Chalico as Headphone's Kid
Trailers:
DVD Trailer


Watch-Free-HD     Download

Details
Name:We.Go.On.2016.1080p.BluRay.REMUX.AVC.DTS-HD.MA.5.1-FGT
Description:
MediaInfo

Video
ID                                       : 1
Format                                   : AVC
Format/Info                              : Advanced Video Codec
Format profile                           : [email protected]
Format settings, CABAC                   : Yes
Format settings, ReFrames                : 4 frames
Format settings, GOP                     : M=3, N=24
Codec ID                                 : V_MPEG4/ISO/AVC
Duration                                 : 1h 29mn
Bit rate mode                            : Constant
Nominal bit rate                         : 35.0 Mbps
Width                                    : 1 920 pixels
Height                                   : 1 080 pixels
Display aspect ratio                     : 16:9
Frame rate mode                          : Constant
Frame rate                               : 23.976 (24000/1001) fps
Standard                                 : NTSC
Color space                              : YUV
Chroma subsampling                       : 4:2:0
Bit depth                                : 8 bits
Scan type                                : Progressive
Bits/(Pixel*Frame)                       : 0.704
Title                                    : We.Go.On.2016.1080p.BluRay.REMUX.AVC.DTS-HD.MA.5.1-FGT
Language                                 : English
Default                                  : No
Forced                                   : No
Color range                              : Limited
Color primaries                          : BT.709
Transfer characteristics                 : BT.709
Matrix coefficients                      : BT.709

Audio #1
ID                                       : 2
Format                                   : DTS
Format/Info                              : Digital Theater Systems
Format profile                           : MA / Core
Mode                                     : 16
Format settings, Endianness              : Big
Codec ID                                 : A_DTS
Duration                                 : 1h 29mn
Bit rate mode                            : Variable / Constant
Bit rate                                 : Unknown / 1 509 Kbps
Channel(s)                               : 6 channels
Channel positions                        : Front: L C R, Side: L R, LFE
Sampling rate                            : 48.0 KHz
Frame rate                               : 93.750 fps (512 spf)
Bit depth                                : 24 bits
Compression mode                         : Lossless / Lossy
Title                                    : We.Go.On.2016.1080p.BluRay.REMUX.AVC.DTS-HD.MA.5.1-FGT
Language                                 : English
Default                                  : Yes
Forced                                   : No

Audio #2
ID                                       : 3
Format                                   : DTS
Format/Info                              : Digital Theater Systems
Mode                                     : 16
Format settings, Endianness              : Big
Codec ID                                 : A_DTS
Duration                                 : 1h 29mn
Bit rate mode                            : Constant
Bit rate                                 : 1 509 Kbps
Channel(s)                               : 6 channels
Channel positions                        : Front: L C R, Side: L R, LFE
Sampling rate                            : 48.0 KHz
Frame rate                               : 93.750 fps (512 spf)
Bit depth                                : 24 bits
Compression mode                         : Lossy
Stream size                              : 962 MiB (4%)
Title                                    : We.Go.On.2016.1080p.BluRay.REMUX.AVC.DTS-HD.MA.5.1-FGT
Language                                 : English
Default                                  : No
Forced                                   : No

Audio #3
ID                                       : 4
Format                                   : AC-3
Format/Info                              : Audio Coding 3
Mode extension                           : CM (complete main)
Format settings, Endianness              : Big
Codec ID                                 : A_AC3
Duration                                 : 1h 29mn
Bit rate mode                            : Constant
Bit rate                                 : 448 Kbps
Channel(s)                               : 6 channels
Channel positions                        : Front: L C R, Side: L R, LFE
Sampling rate                            : 48.0 KHz
Frame rate                               : 31.250 fps (1536 spf)
Compression mode                         : Lossy
Stream size                              : 286 MiB (1%)
Title                                    : We.Go.On.2016.1080p.BluRay.REMUX.AVC.DTS-HD.MA.5.1-FGT
Language                                 : English
Default                                  : No
Forced                                   : No

Text
ID                                       : 5
Format                                   : PGS
Muxing mode                              : zlib
Codec ID                                 : S_HDMV/PGS
Codec ID/Info                            : Picture based subtitle format used on BDs/HD-DVDs
Title                                    : English-PGS
Language                                 : English
Default                                  : Yes
Forced                                   : No

Menu
00:00:00.000                             : en:Chapter 01
00:05:31.664                             : en:Chapter 02
00:11:23.849                             : en:Chapter 03
00:26:16.825                             : en:Chapter 04
00:31:50.575                             : en:Chapter 05
00:39:07.845                             : en:Chapter 06
00:47:57.416                             : en:Chapter 07
00:56:05.487                             : en:Chapter 08
01:07:08.315                             : en:Chapter 09
01:18:47.180                             : en:Chapter 10
01:24:35.695                             : en:Chapter 11
01:29:05.548                             : en:Chapter 12
 
 
Category:Movies > Remux
Lang:English  English
Total Size:24.05 GB
Info Hash:3997071dcbd427128099e9bacebebb709d21f33e
Added By:Agent47
Date Added:07-06-2017 00:42:59
Views:307
Hits:52

Download Torrent

Ratings:Not Yet Rated (Log in to rate it)


Tracker:
http://tracker.trackerfix.com:80/announce


File List: 


Comments

No comments still posted

Powered by 10 Hamsters v2-svn -|- Page Generated In 0.070262 secs.
-|- RSS FEED
Theme By: Nikkbu