[Login] or [Signup]
Login
Username:
Password:
[Signup]
[Recover Account]


Poll


You must be logged in to view polls



Torrent Details For "Vaapsi (2016) Punjabi 720p DVDRip x264 AAC 1GB - MovCr"

Vaapsi (2016) Punjabi 720p DVDRip x264 AAC 1GB - MovCr

Download this torrent | Magnet Download
Health:
Seeds: 0
Leechers: 2
Completed: 968 
Last Checked: 11-10-2018 14:23:47
External Torrent
Update Stats
Download Magnet


Poster


iMDB
Imdb Picture Title: Vaapsi
Year: 2016
Runtime: 122 minutes
Votes: 20
Rating: 8.4/10
Language: Panjabi
Country: India
All Genres: Sport
Plot Outline: After receiving a phone call from his ailing mother, a former field hockey player and rebel fighter returns to Punjab despite his possible arrest.
Director: Rakesh Mehta
Writing By: Rakesh Mehta,
Produced By: Vishal V. Patil,Lakhwinder Shabla,
Music: Gurmit Singh
Cast:
Dhrriti Saharan as Rajjo
Ashish Duggal as
Gulshan Grover as
Deep Mandeep as
Sameksha as
Harish Verma as


Watch-Free-HD     Download

Details
Name:Vaapsi (2016) Punjabi 720p DVDRip x264 AAC 1GB - MovCr
Description:
Our Site URL :  http://movcr.com

Vaapsi (2016) Punjabi 720p DVDRip x264 AAC 1GB - MovCr

 http://www.imdb.com/title/tt5532888/

 

General
Complete name                            : www.movcr.com - Vaapsi (2016) Punjabi 720p DVDRip x264 AAC 1GB - MovCr.mkv
Format                                   : Matroska
Format version                           : Version 4 / Version 2
File size                                : 1.08 GiB
Duration                                 : 1 h 58 min
Overall bit rate                         : 1 308 kb/s
Movie name                               : ww.movcr.com
Encoded date                             : UTC 2018-03-25 22:53:39
Writing application                      : mkvmerge v21.0.0 ('Tardigrades Will Inherit The Earth') 64-bit
Writing library                          : libebml v1.3.5 + libmatroska v1.4.8

Video
ID                                       : 1
Format                                   : AVC
Format/Info                              : Advanced Video Codec
Format profile                           : [email protected]
Format settings                          : CABAC / 4 Ref Frames
Format settings, CABAC                   : Yes
Format settings, RefFrames               : 4 frames
Codec ID                                 : V_MPEG4/ISO/AVC
Duration                                 : 1 h 58 min
Bit rate                                 : 1 200 kb/s
Width                                    : 1 280 pixels
Height                                   : 544 pixels
Display aspect ratio                     : 2.35:1
Frame rate mode                          : Variable
Frame rate                               : 24.866 FPS
Color space                              : YUV
Chroma subsampling                       : 4:2:0
Bit depth                                : 8 bits
Scan type                                : Progressive
Bits/(Pixel*Frame)                       : 0.069
Stream size                              : 997 MiB (90%)
Title                                    : ww.movcr.com
Writing library                          : x264 core 148 r2708 86b7198
Encoding settings                        : cabac=1 / ref=1 / deblock=1:0:0 / analyse=0x1:0x111 / me=hex / subme=2 / psy=1 / psy_rd=1.00:0.00 / mixed_ref=0 / me_range=16 / chroma_me=1 / trellis=0 / 8x8dct=0 / cqm=0 / deadzone=21,11 / fast_pskip=1 / chroma_qp_offset=0 / threads=3 / lookahead_threads=1 / sliced_threads=0 / nr=0 / decimate=1 / interlaced=0 / bluray_compat=0 / constrained_intra=0 / bframes=3 / b_pyramid=2 / b_adapt=1 / b_bias=0 / direct=1 / weightb=1 / open_gop=0 / weightp=1 / keyint=250 / keyint_min=25 / scenecut=40 / intra_refresh=0 / rc_lookahead=10 / rc=abr / mbtree=1 / bitrate=1200 / ratetol=1.0 / qcomp=0.60 / qpmin=0 / qpmax=69 / qpstep=4 / vbv_maxrate=20000 / vbv_bufsize=25000 / nal_hrd=none / filler=0 / ip_ratio=1.40 / aq=1:1.00
Default                                  : Yes
Forced                                   : No
Color range                              : Limited
Color primaries                          : BT.601 PAL
Transfer characteristics                 : BT.709
Matrix coefficients                      : BT.601

Audio
ID                                       : 2
Format                                   : AAC
Format/Info                              : Advanced Audio Codec
Format profile                           : LC
Codec ID                                 : A_AAC-2
Duration                                 : 1 h 58 min
Bit rate                                 : 128 kb/s
Channel(s)                               : 2 channels
Channel positions                        : Front: L R
Sampling rate                            : 48.0 kHz
Frame rate                               : 46.875 FPS (1024 SPF)
Compression mode                         : Lossy
Delay relative to video                  : -191 ms
Stream size                              : 109 MiB (10%)
Title                                    : ww.movcr.com
Language                                 : Panjabi
Default                                  : Yes
Forced                                   : No



 
 
 
 
 
 
 
Category:Movies > Punjabi
Lang:Punjabi
Total Size:1.08 GB
Info Hash:1a3ba578c1f003361029216c2558f0ed64a37165
Added By:MAZE
Date Added:25-03-2018 10:09:44
Views:1,811
Hits:344

Download Torrent

Ratings:Not Yet Rated (Log in to rate it)


Tracker:
udp://tracker.openbittorrent.com:80/announce

This Torrent also has backup trackers
URLSeedersLeechersCompleted
http://share.camoe.cn:8080/announce000
http://t.nyaatracker.com:80/announce100
http://asnet.pw:2710/announce000
http://tracker.tfile.co:80/announce000
http://pt.lax.mx:80/announce000
http://tracker.bt-hash.com:443/announce000
http://grifon.info:80/announce000
http://retracker.spark-rostov.ru:80/announce000
http://tr.kxmp.cf:80/announce000
http://tracker.city9x.com:2710/announce00136
http://tracker.tfile.me:80/announce000
http://retracker.telecom.by:80/announce000
http://tracker.electro-torrent.pl:80/announce107
http://open.kickasstracker.com:443/announce16310
http://retracker.mgts.by:80/announce10146
http://retracker.bashtel.ru:80/announce000
http://tracker.devil-torrents.pl:80/announce000
http://torrentsmd.eu:8080/announce100
http://ns349743.ip-91-121-106.eu:80/announce000
http://torrentsmd.me:8080/announce200
http://agusiq-torrents.pl:6969/announce30276
http://fxtt.ru:80/announce101210


File List: 


Comments

<< Previous      Next >>
1 - 1

[Report] Posted: 04-04-2018 at 06:05:54
Deluser
Deleted Account


Uploaded:
Downloaded:
Ratio: ---

Please Upload ThesePunjabi Movies in HDRIP Sarvann (2017) Super Singh (2017) Mahi NRI (2017) The Black Prince (2017) Bhalwan Singh (2017) Thug Life (2017) Sat Shri Akaal England (2017) :|  :|

1 - 1
<< Previous      Next >>


Powered by 10 Hamsters v2-svn -|- Page Generated In 1.066460 secs.
-|- RSS FEED
Theme By: Nikkbu