[Login] or [Signup]
Login
Username:
Password:
[Signup]
[Recover Account]


Poll


You must be logged in to view polls



Torrent Details For "Extraordinary.Mission.2017.CHINESE.1080p.WEBRip.x264.AAC2.0-FGT"

Extraordinary.Mission.2017.CHINESE.1080p.WEBRip.x264.AAC2.0-FGT

Download this torrent | Magnet Download
Health:
Seeds: 2
Leechers: 0
Completed:
Last Checked: 19-11-2018 04:35:45
External Torrent
Update Stats
Download Magnet


Poster


iMDB
Imdb Picture Title: Extraordinary Mission
Year: 2017
Runtime: 117 minutes
Votes: 99
Rating: 7.1/10
Language: Mandarin
Country: China
All Genres: Action, Crime
Plot Outline: The film revolves an undercover police officer who attempts to take down a drug trafficking syndicate from the inside.
Director: Alan Mak
Anthony Pun
Writing By: Felix Chong,
Produced By: Ronald Wong,
Music: Kwong Wing Chan Taq Sakakibara
Plot:

The film revolves an undercover police officer who attempts to take down a drug trafficking syndicate from the inside.


Cast:
Yihong Duan as
Xuan Huang as
Yueting Lang as
Jiadong Xing as
Feng Zu as


Watch-Free-HD     Download

Details
Name:Extraordinary.Mission.2017.CHINESE.1080p.WEBRip.x264.AAC2.0-FGT
Description:
MediaInfo

Video
ID                                       : 1
Format                                   : AVC
Format/Info                              : Advanced Video Codec
Format profile                           : [email protected]
Format settings, CABAC                   : Yes
Format settings, ReFrames                : 4 frames
Codec ID                                 : avc1
Codec ID/Info                            : Advanced Video Coding
Duration                                 : 2h 1mn
Bit rate                                 : 3 002 Kbps
Width                                    : 1 920 pixels
Height                                   : 800 pixels
Display aspect ratio                     : 2.40:1
Frame rate mode                          : Constant
Frame rate                               : 24.000 fps
Color space                              : YUV
Chroma subsampling                       : 4:2:0
Bit depth                                : 8 bits
Scan type                                : Progressive
Bits/(Pixel*Frame)                       : 0.081
Stream size                              : 2.54 GiB (93%)
Title                                    : Extraordinary.Mission.2017.CHINESE.1080p.WEBRip.x264.AAC2.0-FGT

Audio
ID                                       : 2
Format                                   : AAC
Format/Info                              : Advanced Audio Codec
Format profile                           : LC
Codec ID                                 : 40
Duration                                 : 2h 1mn
Bit rate mode                            : Constant
Bit rate                                 : 224 Kbps
Channel(s)                               : 2 channels
Channel positions                        : Front: L R
Sampling rate                            : 32.0 KHz
Frame rate                               : 31.250 fps (1024 spf)
Compression mode                         : Lossy
Stream size                              : 194 MiB (7%)
Title                                    : Extraordinary.Mission.2017.CHINESE.1080p.WEBRip.x264.AAC2.0-FGT
Default                                  : Yes
Alternate group                          : 1





Notes:
Hardcoded CHinese and English subtitles.


Title: Extraordinary Mission (2017)
IMDB Rating: 7.1/10 from 99 users Updated : 2017-06-06
Genres: Action , Crime
Actors: Yihong Duan , Xuan Huang , Yueting Lang , Jiadong Xing , Feng Zu
Director: Alan Mak , Anthony Pun
Runtime: 117
Year: 2017
Plot: The film revolves an undercover police officer who attempts to take down a drug trafficking syndicate from the inside.

 http://imagecurl.com/images/78346427612354715667_thumb.png
 http://imagecurl.com/images/88223469655258161683_thumb.png
 http://imagecurl.com/images/60982604908190954910_thumb.png
Category:Movies > WEB-HD
Lang:Unknown/NA
Total Size:2.73 GB
Info Hash:8a30863bce8b798cbb7bb11923e3c75d10f57440
Added By:Agent47
Date Added:06-06-2017 16:57:41
Views:194
Hits:65

Download Torrent

Ratings:Not Yet Rated (Log in to rate it)


Tracker:
http://tracker.trackerfix.com:80/announce


File List: 


Comments

No comments still posted

Powered by 10 Hamsters v2-svn -|- Page Generated In 0.009067 secs.
-|- RSS FEED
Theme By: Nikkbu