[Login] or [Signup]
Login
Username:
Password:
[Signup]
[Recover Account]


Poll


You must be logged in to view polls



Torrent Details For "Prison.Break.S05E01.WEB-DL.x264-HEFF"

Prison.Break.S05E01.WEB-DL.x264-HEFF

Download this torrent | Magnet Download
Health:
Seeds: 1
Leechers: 6
Completed: 1,750 
Last Checked: 10-11-2018 13:45:53
External Torrent
Update Stats
Download Magnet


Poster


Watch-Free-HD     Download

Details
Name:Prison.Break.S05E01.WEB-DL.x264-HEFF
Description:


IMDb:  http://www.imdb.com/title/tt4928092/
Donate Us: bitcoin:17HBPWiAcvh9GFcZPg1ebvBXbnJDE3oxut

File Info

General
Complete name                            : Prison.Break.S05E01.WEB-DL.x264-HEFF.mp4
Format                                   : MPEG-4
Format profile                           : Base Media
Codec ID                                 : isom (isom/iso2/avc1/mp41)
File size                                : 870 MiB
Duration                                 : 43 min 17 s
Overall bit rate                         : 2 810 kb/s

Video
ID                                       : 1
Format                                   : AVC
Format/Info                              : Advanced Video Codec
Format profile                           : [email protected]
Format settings, CABAC                   : Yes
Format settings, ReFrames                : 4 frames
Codec ID                                 : avc1
Codec ID/Info                            : Advanced Video Coding
Duration                                 : 43 min 17 s
Bit rate                                 : 2 700 kb/s
Width                                    : 720 pixels
Height                                   : 406 pixels
Display aspect ratio                     : 16:9
Frame rate mode                          : Constant
Frame rate                               : 23.976 (23976/1000) FPS
Chroma subsampling                       : 4:2:0
Bit depth                                : 8 bits
Scan type                                : Progressive
Bits/(Pixel*Frame)                       : 0.385
Stream size                              : 828 MiB (95%)
Writing library                          : x264 core 148

Audio
ID                                       : 2
Format                                   : AAC
Format/Info                              : Advanced Audio Codec
Format profile                           : LC
Codec ID                                 : 40
Duration                                 : 43 min 17 s
Bit rate mode                            : Constant
Bit rate                                 : 129 kb/s
Channel(s)                               : 2 channels
Channel(s)_Original                      : 6 channels
Channel positions                        : Front: L C R, Side: L R, LFE
Sampling rate                            : 48.0 kHz
Frame rate                               : 46.875 FPS (1024 spf)
Compression mode                         : Lossy
Stream size                              : 39.8 MiB (5%)

Thumbnails

Category:TV > WEB-HD
Lang:English  English
Total Size:870.08 MB
Info Hash:a2cd853ec68ceb853e817ceed9edea8ddcb473e7
Added By:pheonix83
Date Added:06-04-2017 04:47:36
Views:415
Hits:68

Download Torrent

Ratings:Not Yet Rated (Log in to rate it)


Tracker:
udp://tracker.opentrackr.org:1337/announce


File List: 


Comments

No comments still posted

Powered by 10 Hamsters v2-svn -|- Page Generated In 0.155490 secs.
-|- RSS FEED
Theme By: Nikkbu