[Login] or [Signup]
Login
Username:
Password:
[Signup]
[Recover Account]


Poll


You must be logged in to view polls



Torrent Details For "Demolition 2015 720p x264 Esub BluRay Dual Audio English Hindi GOPISAHI"

Demolition 2015 720p x264 Esub BluRay Dual Audio English Hindi GOPISAHI

Download this torrent | Magnet Download
Health:
Seeds: 0
Leechers: 920
Completed:
Last Checked: 12-03-2018 13:18:29
External Torrent
Update Stats
Download Magnet


Poster


iMDB
Imdb Picture Title: Demolition
Year: 2015
Runtime: 101 minutes
Votes: 60787
Rating: 7.0/10
Language: English
Country: USA
All Genres: Comedy, Drama
Plot Outline: A successful investment banker struggles after losing his wife in a tragic car crash. With the help of a customer service rep and her young son, he starts to rebuild, beginning with the demolition of the life he once knew.
Tagline: LIFE: Some Disassembly Required.
Director: Jean-Marc Vallée
Writing By: Bryan Sipe,
Produced By: Helen Estabrook,Carla Hacken,Lianne Halfon,Sidney Kimmel,Thad Luckinbill,Trent Luckinbill,John Malkovich,Emma McGill,Jason Reitman,Nathan Ross,Jon Schumacher,Ellen H. Schwartz,Bryan Sipe,Molly Smith,Russell Smith,Bruce Toll,Jean-Marc Vallée,
Plot:

Davis (Jake Gyllenhaal), a successful investment banker, struggles after losing his wife in a tragic car crash. Despite pressure from his father-in-law, Phil (Chris Cooper), to pull it together, Davis continues to unravel. What starts as a complaint letter to a vending machine company turns into a series of letters revealing startling personal admissions. Davis' letters catch the attention of customer service rep, Karen (Naomi Watts), and, amidst emotional and financial burdens of her own, the two form an unlikely connection. With the help of Karen and her son Chris (Judah Lewis), Davis starts to rebuild, beginning with the demolition of the life he once knew.

- Written by Fox Searchlight

A successful investment banker struggles after losing his wife in a tragic car crash. With the help of a customer service rep and her young son, he starts to rebuild, beginning with the demolition of the life he once knew.

- Written by Fox Searchlight Pictures
Cast:
Jake Gyllenhaal as Davis
Naomi Watts as Karen
Chris Cooper as Phil
Judah Lewis as Chris
C.J. Wilson as Carl
Polly Draper as Margot
Malachy Cleary as Davis' Dad
Debra Monk as Davis' Mom
Heather Lind as Julia
Wass Stevens as Jimmy
Trailers:
Official Trailer
UK Trailer
Trailer #1


Watch-Free-HD     Download

Details
Name:Demolition 2015 720p x264 Esub BluRay Dual Audio English Hindi GOPISAHI
Description:

Format                         : Matroska
Format version                 : Version 4 / Version 2
File size                      : 500 MiB
Duration                       : 1 h 40 min
Overall bit rate               : 693 kb/s
Movie name                     : Demolition 2015 GOPISAHI

Video
Format                         : AVC
Codec ID                       : V_MPEG4/ISO/AVC
Duration                       : 1 h 40 min
Bit rate                       : 500 kb/s
Width                          : 1 280 pixels
Height                         : 544 pixels
Display aspect ratio           : 2.35:1
Frame rate mode                : Constant
Frame rate                     : 23.976 (24000/1001) FPS
Stream size                    : 361 MiB (72%)
Title                          : GOPISAHI
Writing library                : x264 core 155 r2893 b00bcaf

Audio #1
Format                         : AAC
Duration                       : 1 h 40 min
Bit rate                       : 96.0 kb/s
Channel(s)                     : 6 channels
Channel positions              : Front: L C R, Side: L R, LFE
Sampling rate                  : 44.1 kHz
Frame rate                     : 43.066 FPS (1024 SPF)
Compression mode               : Lossy
Stream size                    : 69.8 MiB (14%)
Title                          : GOPISAHI
Language                       : Hindi

Audio #2
Format                         : AAC
Duration                       : 1 h 40 min
Bit rate                       : 96.0 kb/s
Channel(s)                     : 6 channels
Channel positions              : Front: L C R, Side: L R, LFE
Sampling rate                  : 44.1 kHz
Frame rate                     : 43.066 FPS (1024 SPF)
Compression mode               : Lossy
Stream size                    : 68.0 MiB (14%)
Title                          : GOPISAHI
Language                       : English

Text
Language                       : English


Category:Movies > Hollywood Dub
Lang:Hindi
Total Size:500.39 MB
Info Hash:b1208f3c09e1c0455a138f3f0effff669ec5649d
Added By:gopisahi
Date Added:12-03-2018 07:45:01
Views:862
Hits:104

Download Torrent

Ratings:Not Yet Rated (Log in to rate it)


Tracker:
udp://9.rarbg.com:2740/announce


File List: 


Comments

No comments still posted

Powered by 10 Hamsters v2-svn -|- Page Generated In 0.267229 secs.
-|- RSS FEED
Theme By: Nikkbu