[Login] or [Signup]
Login
Username:
Password:
[Signup]
[Recover Account]


Poll


You must be logged in to view polls



Torrent Details For "Unforgiven 1992 REMASTERED 1080p BluRay x264 AAC 5.1 Esub -MRG"

Unforgiven 1992 REMASTERED 1080p BluRay x264 AAC 5.1 Esub -MRG

Download this torrent | Magnet Download
Health:
Seeds: 0
Leechers: 6
Completed:
Last Checked: 01-10-2018 20:20:39
External Torrent
Update Stats
Download Magnet


Poster


Watch-Free-HD     Download

Details
Name:Unforgiven 1992 REMASTERED 1080p BluRay x264 AAC 5.1 Esub -MRG
Description:



Unforgiven 1992 REMASTERED 1080p BluRay x264 AAC 5.1 Esub -MRG

Source : REMUX @ FGT . Many Thanks :)

Format                      : Matroska
Format version              : Version 4 / Version 2
File size                   : 2.05 GiB
Duration                    : 2 h 10 min
Overall bit rate            : 2 244 kb/s
Movie name                  : Unforgiven 1992 REMASTERED- TEAM MRG


Video
ID                          : 1
Format                      : AVC
Format/Info                 : Advanced Video Codec
Format profile              : [email protected]
Format settings, CABAC      : Yes
Format settings, ReFrames   : 5 frames
Codec ID                    : V_MPEG4/ISO/AVC
Duration                    : 2 h 10 min
Bit rate                    : 2 050 kb/s
Width                       : 1 920 pixels
Height                      : 800 pixels
Display aspect ratio        : 2.40:1
Frame rate mode             : Constant
Frame rate                  : 23.976 (24000/1001) FPS


Audio
ID                          : 2
Format                      : AAC
Format/Info                 : Advanced Audio Codec
Format profile              : LC
Codec ID                    : A_AAC
Duration                    : 2 h 10 min
Bit rate                    : 192 kb/s
Channel(s)                  : 6 channels
Channel positions           : Front: L C R, Side: L R, LFE
Sampling rate               : 48.0 kHz
Frame rate                  : 46.875 FPS (1024 spf)
Compression mode            : Lossy
Delay relative to video     : 9 ms
Stream size                 : 179 MiB (9%)
Language                    : English
Default                     : Yes
Forced                      : No

Text
ID                          : 3
Format                      : UTF-8
Codec ID                    : S_TEXT/UTF8
Codec ID/Info               : UTF-8 Plain Text
Duration                    : 2 h 10 min
Bit rate                    : 47 b/s
Count of elements           : 1425
Stream size                 : 45.7 KiB (0%)
Language                    : English
Default                     : Yes
Forced                      : No

Menu
00:00:00.000                : en:Chapter 01
00:01:11.905                : en:Chapter 02
00:03:54.234                : en:Chapter 03
00:07:01.045                : en:Chapter 04
00:08:17.538                : en:Chapter 05
00:14:10.599                : en:Chapter 06
00:16:54.680                : en:Chapter 07
00:24:18.498                : en:Chapter 08
00:28:52.397                : en:Chapter 09
00:31:42.025                : en:Chapter 10
00:34:34.697                : en:Chapter 11
00:38:53.956                : en:Chapter 12
00:46:24.531                : en:Chapter 13
00:53:43.970                : en:Chapter 14
00:58:05.023                : en:Chapter 15
01:00:24.704                : en:Chapter 16
01:06:48.754                : en:Chapter 17
01:09:36.088                : en:Chapter 18
01:13:48.674                : en:Chapter 19
01:20:59.604                : en:Chapter 20
01:24:46.623                : en:Chapter 21
01:29:38.664                : en:Chapter 22
01:34:27.078                : en:Chapter 23
01:36:10.723                : en:Chapter 24
01:41:10.898                : en:Chapter 25
01:43:13.687                : en:Chapter 26
01:45:50.218                : en:Chapter 27
01:49:19.094                : en:Chapter 28
01:53:14.329                : en:Chapter 29
01:54:34.075                : en:Chapter 30
01:58:21.344                : en:Chapter 31
02:02:12.658                : en:Chapter 32
02:04:32.047                : en:Chapter 33

         
Category:Movies > 1080P Bluray
Lang:English  English
Total Size:2.05 GB
Info Hash:6aaefb578ac36d9b21e06013e904638279e1620d
Added By:MAAXHD
Date Added:05-06-2017 02:39:00
Views:283
Hits:49

Download Torrent

Ratings:Not Yet Rated (Log in to rate it)


Tracker:
udp://tracker.coppersurfer.tk:6969/announce


File List: 


Comments

No comments still posted

Powered by 10 Hamsters v2-svn -|- Page Generated In 0.356231 secs.
-|- RSS FEED
Theme By: Nikkbu