[Login] or [Signup]
Login
Username:
Password:
[Signup]
[Recover Account]


Poll


You must be logged in to view polls



Torrent Details For "Noor (2017) - 720p - DVD-Rip - Hindi - x264 - AC3 - DD5.1 - Mafiaking - M2Tv"

Noor (2017) - 720p - DVD-Rip - Hindi - x264 - AC3 - DD5.1 - Mafiaking - M2Tv

Download this torrent | Magnet Download
Health:
Seeds: 0
Leechers: 21
Completed:
Last Checked: 30-07-2018 15:47:00
External Torrent
Update Stats
Download Magnet


Poster


Watch-Free-HD     Download

Details
Name:Noor (2017) - 720p - DVD-Rip - Hindi - x264 - AC3 - DD5.1 - Mafiaking - M2Tv
Description:







Quote:






Ratings: 3.7/10

Genere: Adventure, Comedy, Drama

General
Unique ID : 190876455167843479787095313306745092620 (0x8F9977D358674B65A4175825F7B4BA0C)
Complete name : Noor (2017) - 720p - DVD-Rip - Hindi - x264 - AC3 - DD5.1 - Mafiaking - M2Tv.mkv
Format : Matroska
Format version : Version 4 / Version 2
File size : 982 MiB
Duration : 1 h 56 min
Overall bit rate : 1 176 kb/s
Movie name : Noor (2017) - 720p - DVD-Rip - Hindi - x264 - AC3 - DD5.1 - Mafiaking - M2Tv
Encoded date : UTC 2017-06-03 19:38:27
Writing application : mkvmerge v7.7.0 ('Six Voices') 32bit built on Feb 28 2015 23:23:00
Writing library : libebml v1.3.1 + libmatroska v1.4.2

Video
ID : 1
Format : AVC
Format/Info : Advanced Video Codec
Format profile : [email protected]
Format settings, CABAC : Yes
Format settings, ReFrames : 4 frames
Codec ID : V_MPEG4/ISO/AVC
Duration : 1 h 56 min
Bit rate : 950 kb/s
Width : 1 280 pixels
Height : 544 pixels
Display aspect ratio : 2.35:1
Frame rate mode : Constant
Frame rate : 23.976 (24000/1001) FPS
Color space : YUV
Chroma subsampling : 4:2:0
Bit depth : 8 bits
Scan type : Progressive
Bits/(Pixel*Frame) : 0.057
Stream size : 794 MiB (81%)
Title : Mafiaking
Language : Hindi
Default : Yes
Forced : No

Audio
ID : 2
Format : AC-3
Format/Info : Audio Coding 3
Format settings, Endianness : Big
Codec ID : A_AC3
Duration : 1 h 56 min
Bit rate mode : Constant
Bit rate : 224 kb/s
Channel(s) : 6 channels
Channel positions : Front: L C R, Side: L R, LFE
Sampling rate : 48.0 kHz
Frame rate : 31.250 FPS (1536 spf)
Bit depth : 16 bits
Compression mode : Lossy
Stream size : 187 MiB (19%)
Title : Mafiaking
Language : Hindi
Service kind : Complete Main
Default : Yes
Forced : No

SAMPLE WITH IN TORRENT



**To View Image In Full Size Click on Thumbnails**

[img]http://www.lookimg.com/image/xFC9v[/img]
[img]http://www.lookimg.com/image/xFW8E[/img]
[img]http://www.lookimg.com/image/xFbXd[/img]

[img]http://www.lookimg.com/image/xFnKt[/img]
[img]http://www.lookimg.com/image/xFpL8[/img]

[img]http://www.lookimg.com/image/xFRUD[/img]
[img]http://www.lookimg.com/image/xFsb5[/img]


Category:Movies > Bollywood
Lang:Hindi
Total Size:987.19 MB
Info Hash:ee791a635d70b62f45b607bab8e77e2afef2f1f7
Added By:Shrawankk
Date Added:04-06-2017 04:28:21
Views:708
Hits:237

Download Torrent

Ratings:Not Yet Rated (Log in to rate it)


Tracker:
http://bigfoot1942.sektori.org:6969/announce

This Torrent also has backup trackers
URLSeedersLeechersCompleted
http://bigfoot1942.sektori.org:6969/announce000
http://tracker2.wasabii.com.tw:6969/announce1138
http://tracker.mg64.net:6881/announce010
http://bt.artvid.ru:6969/announce114
http://open.acgtracker.com:1096/announce010
http://tracker.opentrackr.org/announce000
http://announce.torrentsmd.com:6969/announce000
http://tracker.trackerfix.com/announce000
http://tracker.opentrackr.org/announce000


File List: 


Comments

No comments still posted

Powered by 10 Hamsters v2-svn -|- Page Generated In 0.816510 secs.
-|- RSS FEED
Theme By: Nikkbu