[Login] or [Signup]
Login
Username:
Password:
[Signup]
[Recover Account]


Poll


You must be logged in to view polls



Torrent Details For "Channa Mereya 2017 720p x264 HD Punjabi GOPISAHI"

Channa Mereya 2017 720p x264 HD Punjabi GOPISAHI

Download this torrent | Magnet Download
Health:
Seeds: 4
Leechers: 2
Completed: 752 
Last Checked: 12-10-2018 16:18:34
External Torrent
Update Stats
Download Magnet


Poster


iMDB
Imdb Picture Title: Channa Mereya
Year: 2017
Runtime: 132 minutes
Votes: 36
Rating: 7.6/10
Language: Panjabi
Country: India
All Genres: Romance
Director: Pankaj Batra

Produced By: Gunbir Singh Sidhu,Manmord Sidhu,
Cast:
Karamjit Anmol as
Amrit Mann as
Ninja as
Payal Rajput as


Watch-Free-HD     Download

Details
Name:Channa Mereya 2017 720p x264 HD Punjabi GOPISAHI
Description:

Format                         : Matroska
Format version                 : Version 4 / Version 2
File size                      : 468 MiB
Duration                       : 2 h 12 min
Overall bit rate               : 495 kb/s
Movie name                     : Channa Mereya 2017 GOPISAHI

Video
Format                         : AVC
Codec ID                       : V_MPEG4/ISO/AVC
Duration                       : 2 h 12 min
Bit rate                       : 400 kb/s
Width                          : 1 280 pixels
Height                         : 544 pixels
Display aspect ratio           : 2.35:1
Frame rate mode                : Constant
Frame rate                     : 23.976 (24000/1001) FPS
Stream size                    : 378 MiB (81%)
Title                          : GOPISAHI
Writing library                : x264 core 155 r2893 b00bcaf

Audio
Bit rate                       : 93.6 kb/s
Channel(s)                     : 2 channels
Channel positions              : Front: L R
Sampling rate                  : 44.1 kHz
Frame rate                     : 43.066 FPS (1024 SPF)
Compression mode               : Lossy
Stream size                    : 88.5 MiB (19%)
Title                          : GOPISAHI
Language                       : Panjabi


Category:Movies > Punjabi
Lang:Punjabi
Total Size:468.41 MB
Info Hash:88789d7ca48f677c372124714ecaf74ef51751ad
Added By:gopisahi
Date Added:05-03-2018 06:46:16
Views:1,294
Hits:135

Download Torrent

Ratings:Not Yet Rated (Log in to rate it)


Tracker:
udp://9.rarbg.com:2740/announce


File List: 


Comments

No comments still posted

Powered by 10 Hamsters v2-svn -|- Page Generated In 0.282398 secs.
-|- RSS FEED
Theme By: Nikkbu