[Login] or [Signup]
Login
Username:
Password:
[Signup]
[Recover Account]


Poll


You must be logged in to view polls



Torrent Details For "Noor 2017 Hindi 720p DvDRip x264 AAC { TaRa }"

Noor 2017 Hindi 720p DvDRip x264 AAC { TaRa }

Download this torrent | Magnet Download
Health:
Seeds: 0
Leechers: 1
Completed:
Last Checked: 06-10-2018 08:29:09
External Torrent
Update Stats
Download Magnet


Poster


iMDB
Imdb Picture Title: Noor
Year: 2017
Runtime: 107 minutes
Votes: 20
Rating: 5.1/10
Language: Hindi
Country: India
All Genres: Adventure, Comedy, Drama, Romance
Plot Outline: Noor is a journalist who juggles her work, love and personal life on a day-to-day basis. One day, Noor's life takes a dramatic turn when she comes across an eye-opening investigative news story.
Tagline: One girl, many moods
Director: Sunhil Sippy
Writing By: Saba Imtiaz,Althea Kaushal,Shikhaa Sharma,Sunhil Sippy,Ishita Moitra,
Produced By: Hanif Chunawala,Priya Gupta,Sumalata Kollabathini,Bhushan Kumar,Krishan Kumar,Vikram Malhotra,Sanjay Mehta,Mehjabeen Raja,Shikhaa Sharma,
Music: Naren Chandavarkar Benedict Taylor
Plot:

Noor is a journalist who juggles her work, love and personal life on a day-to-day basis. One day, Noor's life takes a dramatic turn when she comes across an eye-opening investigative news story.


Cast:
Sunny Leone as
Sonakshi Sinha as Noor
Purab Kohli as Ayan Banerjee
Gareth Lawrence as Chef Raphael
Kanan Gill as Saad Sehgal
Shibani Dandekar as Zara Patel
Yulian Shchukin as Waiter
Trailers:
Noor Official Trailer


Watch-Free-HD     Download

Details
Name:Noor 2017 Hindi 720p DvDRip x264 AAC { TaRa }
Description:

Noor 2017 Hindi 720p DvDRip x264 AAC { TaRa }.mkv


Quote:

===================================================================
General
Complete name               : Noor 2017 Hindi 720p DvDRip x264 AAC { TaRa }.mkv
Format                      : Matroska
Format version              : Version 4 / Version 2
File size                   : 1 014 MiB
Duration                    : 2h 3mn
Overall bit rate            : 1 151 Kbps
===================================================================
Video
ID                          : 1
Format                      : AVC
Format/Info                 : Advanced Video Codec
Format profile              : [email protected]
Format settings, CABAC      : Yes
Format settings, ReFrames   : 8 frames
Codec ID                    : V_MPEG4/ISO/AVC
Duration                    : 2h 3mn
Bit rate                    : 1 000 Kbps
Width                       : 1 280 pixels
Height                      : 544 pixels
Display aspect ratio        : 2.35:1
Frame rate mode             : Constant
Frame rate                  : 23.976 (24000/1001) fps
Color space                 : YUV
Chroma subsampling          : 4:2:0
Bit depth                   : 8 bits
Scan type                   : Progressive
Bits/(Pixel*Frame)          : 0.060
Stream size                 : 881 MiB (87%)
Title                       : .....::::: TaRa :::::.....
Language                    : Hindi
Default                     : Yes
Forced                      : No
===================================================================
Audio
ID                          : 2
Format                      : AAC
Format/Info                 : Advanced Audio Codec
Format profile              : LC
Codec ID                    : A_AAC
Duration                    : 2h 3mn
Bit rate                    : 148 Kbps
Channel(s)                  : 2 channels
Channel positions           : Front: L R
Sampling rate               : 44.1 KHz
Frame rate                  : 43.066 fps (1024 spf)
Compression mode            : Lossy
Stream size                 : 131 MiB (13%)
Title                       : .....::::: TaRa :::::.....
Language                    : Hindi
Default                     : Yes
Forced                      : No
===================================================================


Source By Hon3y...
































 

Category:Movies > Bollywood
Lang:Hindi
Total Size:1,013.72 MB
Info Hash:30339ac5e89ce18b1b78d8d4e56364a5549d17a2
Added By:SkTaRa
Date Added:01-06-2017 04:42:22
Views:499
Hits:108

Download Torrent

Ratings:Not Yet Rated (Log in to rate it)

  


Tracker:
UDP://TRACKER.LEECHERS-PARADISE.ORG:6969/ANNOUNCE

This Torrent also has backup trackers
URLSeedersLeechersCompleted
http://tracker.dler.org:6969/announce000
http://ipv4.tracker.harry.lu:80/announce93139268


File List: 


Comments

No comments still posted

Powered by 10 Hamsters v2-svn -|- Page Generated In 2.966968 secs.
-|- RSS FEED
Theme By: Nikkbu