[Login] or [Signup]
Login
Username:
Password:
[Signup]
[Recover Account]


Poll


You must be logged in to view polls



Torrent Details For "Dukhtar (2014) Pakistan 720p WebHDRip x264 AAC ESub { TaRa }"

Dukhtar (2014) Pakistan 720p WebHDRip x264 AAC ESub { TaRa }

Download this torrent | Magnet Download
Health:
Seeds: 0
Leechers: 2
Completed:
Last Checked: 19-11-2018 23:29:58
External Torrent
Update Stats
Download Magnet


Poster


Watch-Free-HD     Download

Details
Name:Dukhtar (2014) Pakistan 720p WebHDRip x264 AAC ESub { TaRa }
Description:

Quote:

Dukhtar (2014) Pakistan 720p WebHDRip x264 AAC ESub { TaRa }.mkv


===================================================================
General
Complete name               : Dukhtar (2014) Pakistan 720p WebHDRip x264 AAC ESub { TaRa }.mkv
Format                      : Matroska
Format version              : Version 4 / Version 2
File size                   : 1.42 GiB
Duration                    : 1 h 32 min
Overall bit rate            : 2 193 kb/s
===================================================================
Video
ID                          : 1
Format                      : AVC
Format/Info                 : Advanced Video Codec
Format profile              : [email protected]
Format settings, CABAC      : Yes
Format settings, ReFrames   : 12 frames
Codec ID                    : V_MPEG4/ISO/AVC
Duration                    : 1 h 32 min
Bit rate                    : 2 000 kb/s
Width                       : 1 280 pixels
Height                      : 544 pixels
Display aspect ratio        : 2.35:1
Frame rate mode             : Constant
Frame rate                  : 24.000 FPS
Color space                 : YUV
Chroma subsampling          : 4:2:0
Bit depth                   : 8 bits
Scan type                   : Progressive
Bits/(Pixel*Frame)          : 0.120
Stream size                 : 1.30 GiB (91%)
Title                       : .....::::: TaRa :::::.....
Language                    : Urdu
Default                     : Yes
Forced                      : No
===================================================================
Audio
ID                          : 2
Format                      : AAC
Format/Info                 : Advanced Audio Codec
Format profile              : HE-AAC / LC
Codec ID                    : A_AAC
Duration                    : 1 h 32 min
Bit rate                    : 192 kb/s
Channel(s)                  : 6 channels
Channel positions           : Front: L C R, Side: L R, LFE
Sampling rate               : 48.0 kHz / 24.0 kHz
Frame rate                  : 23.438 FPS (1024 spf)
Compression mode            : Lossy
Delay relative to video     : 31 ms
Stream size                 : 127 MiB (9%)
Title                       : .....::::: TaRa :::::.....
Language                    : Urdu
Default                     : Yes
Forced                      : No
===================================================================
Text
ID                          : 3
Format                      : UTF-8
Codec ID                    : S_TEXT/UTF8
Codec ID/Info               : UTF-8 Plain Text
Duration                    : 1 h 26 min
Bit rate                    : 32 b/s
Count of elements           : 752
Stream size                 : 20.3 KiB (0%)
Default                     : Yes
Forced                      : No
===================================================================
































Category:Movies > Pakistani
Lang:Urdu
Total Size:1.46 GB
Info Hash:c3e83c5d744ecb6d9b273a5fd54274c3a1ede22a
Added By:SkTaRa
Date Added:05-04-2017 03:22:22
Views:703
Hits:128

Download Torrent

Ratings:rating: 4.0/5 (4.0 Out Of 5) 2 users have rated this torrent (Log in to rate it)


Tracker:
udp://tracker.ccc.de:80/announce

This Torrent also has backup trackers
URLSeedersLeechersCompleted
http://tracker.dler.org:6969/announce000
http://ipv4.tracker.harry.lu:80/announce000


File List: 


Comments

No comments still posted

Powered by 10 Hamsters v2-svn -|- Page Generated In 4.813781 secs.
-|- RSS FEED
Theme By: Nikkbu