[Login] or [Signup]
Login
Username:
Password:
[Signup]
[Recover Account]


Poll


You must be logged in to view polls



Torrent Details For "Siyaah (2013) Pakistani 720p WebHDRip x264 AAC 5.1 { TaRa }"

Siyaah (2013) Pakistani 720p WebHDRip x264 AAC 5.1 { TaRa }

Download this torrent | Magnet Download
Health:
Seeds: 0
Leechers: 1
Completed:
Last Checked: 07-10-2018 01:36:35
External Torrent
Update Stats
Download Magnet


Poster


Watch-Free-HD     Download

Details
Name:Siyaah (2013) Pakistani 720p WebHDRip x264 AAC 5.1 { TaRa }
Description:

Quote:

Siyaah (2013) Pakistani 720p WebHDRip x264 AAC 5.1 { TaRa }.mkv


===================================================================
General
Complete name               : Siyaah (2013) Pakistani 720p WebHDRip x264 AAC 5.1 { TaRa }.mkv
Format                      : Matroska
Format version              : Version 4 / Version 2
File size                   : 1.10 GiB
Duration                    : 1 h 49 min
Overall bit rate mode       : Variable
Overall bit rate            : 1 447 kb/s
===================================================================
Video
ID                          : 1
Format                      : AVC
Format/Info                 : Advanced Video Codec
Format profile              : [email protected]
Format settings, CABAC      : Yes
Format settings, ReFrames   : 3 frames
Codec ID                    : V_MPEG4/ISO/AVC
Duration                    : 1 h 49 min
Bit rate mode               : Variable
Bit rate                    : 1 362 kb/s
Maximum bit rate            : 40.0 Mb/s
Width                       : 1 280 pixels
Height                      : 544 pixels
Display aspect ratio        : 2.35:1
Frame rate mode             : Constant
Frame rate                  : 30.000 FPS
Color space                 : YUV
Chroma subsampling          : 4:2:0
Bit depth                   : 8 bits
Scan type                   : Progressive
Bits/(Pixel*Frame)          : 0.065
Stream size                 : 1.04 GiB (94%)
Title                       : .....::::: TaRa :::::.....
Language                    : Urdu
Default                     : Yes
Forced                      : No
===================================================================
Audio
ID                          : 2
Format                      : AAC
Format/Info                 : Advanced Audio Codec
Format profile              : LC
Codec ID                    : A_AAC
Duration                    : 1 h 49 min
Bit rate                    : 82.4 kb/s
Channel(s)                  : 6 channels
Channel positions           : Front: L C R, Side: L R, LFE
Sampling rate               : 44.1 kHz
Frame rate                  : 43.066 FPS (1024 spf)
Compression mode            : Lossy
Stream size                 : 64.3 MiB (6%)
Title                       : .....::::: TaRa :::::.....
Language                    : Urdu
Default                     : Yes
Forced                      : No
===================================================================























Category:Movies > Pakistani
Lang:Urdu
Total Size:1.11 GB
Info Hash:a8afc12b347df0c7a2cb8ee1f5c5145755b79d09
Added By:SkTaRa
Date Added:05-04-2017 03:17:01
Views:1,199
Hits:295

Download Torrent

Ratings:rating: 4.0/5 (4.0 Out Of 5) 2 users have rated this torrent (Log in to rate it)


Tracker:
udp://tracker.openbittorrent.com:80/announce

This Torrent also has backup trackers
URLSeedersLeechersCompleted
http://www.skyts.net:6969/announce000
http://www.opentrackr.org/announce000
http://mgtracker.org:2710/announce0122
http://5.79.83.193:2710/announce010
http://109.121.134.121:1337/announce000


File List: 


Comments

No comments still posted

Powered by 10 Hamsters v2-svn -|- Page Generated In 3.495737 secs.
-|- RSS FEED
Theme By: Nikkbu