[Login] or [Signup]
Login
Username:
Password:
[Signup]
[Recover Account]


Poll


You must be logged in to view polls



Torrent Details For "Mission Impossible Pentalogy (1996 - 2015) BluRay - 720p - [Telugu (4) + Tam + Hin + Eng] -5.3G..."

Mission Impossible Pentalogy (1996 - 2015) BluRay - 720p - [Telugu (4) + Tam + Hin + Eng] -5.3G...

Download this torrent | Magnet Download
Health:
Seeds: 0
Leechers: 7
Completed: 4,550 
Last Checked: 03-08-2018 17:49:18
External Torrent
Update Stats
Download Magnet


Poster


iMDB
Imdb Picture Title: Mission: Impossible - Rogue Nation
Year: 2015
Runtime: 131 minutes
Votes: 258345
Rating: 7.4/10
Language: English, Swedish, German
Country: China, Hong Kong, USA
All Genres: Action, Adventure, Thriller
Plot Outline: Ethan and team take on their most impossible mission yet, eradicating the Syndicate - an International rogue organization as highly skilled as they are, committed to destroying the IMF.
Tagline: Desperate Times. Desperate Measures.
Director: Christopher McQuarrie
Writing By: Christopher McQuarrie,Christopher McQuarrie,Drew Pearce,Bruce Geller,
Produced By: J.J. Abrams,Zakaria Alaoui,Bryan Burk,Tom Cruise,David Ellison,Dana Goldberg,Don Granger,Thomas Hayslip,Helen Medrano,Jake Myers,Maricel Pagulayan,Daniel M. Stillman,
Music: Joe Kraemer
Plot:

CIA chief Hunley (Baldwin) convinces a Senate committee to disband the IMF (Impossible Mission Force), of which Ethan Hunt (Cruise) is a key member. Hunley argues that the IMF is too reckless. Now on his own, Hunt goes after a shadowy and deadly rogue organization called the Syndicate.

After an excoriating official US government review of its history of questionable missions with high stakes and considerable collateral damage, the IMF is disbanded. Regardless, Ethan Hunt is undeterred from his personal mission to stop a sinister counter-organization to the IMF, the Syndicate. Now a fugitive from the CIA, Hunt secretly calls his colleagues together to accomplish that, which soon also involves a mysterious woman who has an agenda of her own with those criminals. With both sides playing deadly complex games of intrigue, Hunt and his team must take even more risk with difficult options to protect the world.

- Written by Kenneth Chisholm ([email protected])

IMF agent Ethan Hunt is looking for a group of rogue agents known as the Syndicate. When Ethan foils one of their operations, they capture him. Ethan escapes because one of them, a woman, helped him. Ethan then contacts Brandt but Brandt tells him that IMF has been shut down. So Ethan goes out and tries to find them on his own. Months later Brandt and Benji are working at the CIA under the man who shut down IMF, Hunley. Benji gets a trip to Vienna and when he goes he meets Ethan. They attend an opera wherein the Chancellor attends. Ethan sees that someone is about to shoot the Chancellor but he stops him but he sees the woman who helped him there too and with a gun too but she helps Ethan. The Chancellor is evacuated but when he gets in his car it explodes. The woman who says her name is Ilsa tells Ethan who the leader of the syndicate is and Ethan lets her go. Ethan then goes to try and find him. Hunley upon learning if what happened in Vienna and thinking Ethan is involved tells Brandt to get him.

- Written by [email protected]

Ethan is labeled as a rogue agent after the IMF is disavowed by the CIA. The CIA believes that the Syndicate is a figment of Ethan's imagination so they try desperately to take him in. Meanwhile, the Syndicate grows stronger and a British Secret agent who is undercover as a member of the Syndicate, joins with Ethan and his team to take down the Syndicate at last.

- Written by Brandon B

After another operation breaking the protocol, CIA Director Alan Hunley decides to shutdown the IMF. Ethan Hunt is trying to prove the existence of the evil organization The Syndicate but he captured by his agents. However he succeeds to escape with the help of mysterious Syndicate agent Ilsa Faust. Trapped in London, Ethan requests support from William Brandt that tells him that can not do anything to help him since the IMF does not exist anymore. The lonely Ethan decides to follow his only lead, the rogue Syndicate agent Lane. A couple of months later, Ethan summons his friend and former colleague Benji Dunn to go to Austria to help him since he believes the Syndicate will try to assassin the Austrian Chancellor during the opera Turandot. Ethan saves the Chancellor from three snipers but he is killed by a bomb in his car. One of the snipers is Ilsa that gives a lead of Lane's scheme to Ethan. Who is the agent Ilsa Faust? Will Ethan be capable to prove that the Syndicate does exist?

- Written by Claudio Carvalho, Rio de Janeiro, Brazil

Ethan and team take on their most impossible mission yet, eradicating the Syndicate - an International rogue organization as highly skilled as they are, committed to destroying the IMF.

- Written by Paramount Pictures
Cast:
Tom Cruise as Ethan Hunt
Jeremy Renner as William Brandt
Simon Pegg as Benji Dunn
Rebecca Ferguson as Ilsa Faust
Ving Rhames as Luther Stickell
Sean Harris as Lane
Simon McBurney as Atlee
Jingchu Zhang as Lauren
Tom Hollander as Prime Minister
Jens Hultén as Janik Vinter
Trailers:
Final International Trailer
International Trailer
Trailer #1
Teaser Trailer


Watch-Free-HD     Download

Details
Name:Mission Impossible Pentalogy (1996 - 2015) BluRay - 720p - [Telugu (4) + Tam + Hin + Eng] -5.3G...
Description:
Mission Impossible Pentalogy (1996 - 2015) BluRay - 720p - [Telugu (4) + Tam + Hin + Eng] -5.3GB - MovCr

 http://www.imdb.com/list/ls068557682/

 
General
Complete name                            : [Movcr.com] Mission Impossible Pentalogy (1996 - 2015) BluRay - 720p - [Telugu (4) + Tam + Hin + Eng] -5.3GB - MovCr\www.movcr.com - Mission Impossible (1996) BluRay - 720p x264 ESubs - [Tamil + Hin + Eng] - 800MB - MovCr.mkv
Format                                   : Matroska
Format version                           : Version 4 / Version 2
File size                                : 818 MiB
Duration                                 : 1 h 50 min
Overall bit rate mode                    : Variable
Overall bit rate                         : 1 038 kb/s
Movie name                               : www.movcr.com
Encoded date                             : UTC 2018-02-07 06:37:47
Writing application                      : mkvmerge v20.0.0 ('I Am The Sun') 64-bit
Writing library                          : libebml v1.3.5 + libmatroska v1.4.8

Video
ID                                       : 1
Format                                   : AVC
Format/Info                              : Advanced Video Codec
Format profile                           : [email protected]
Format settings                          : CABAC / 16 Ref Frames
Format settings, CABAC                   : Yes
Format settings, RefFrames               : 16 frames
Codec ID                                 : V_MPEG4/ISO/AVC
Duration                                 : 1 h 50 min
Bit rate                                 : 765 kb/s
Width                                    : 1 280 pixels
Height                                   : 532 pixels
Display aspect ratio                     : 2.40:1
Frame rate mode                          : Constant
Frame rate                               : 23.976 (24000/1001) FPS
Color space                              : YUV
Chroma subsampling                       : 4:2:0
Bit depth                                : 8 bits
Scan type                                : Progressive
Bits/(Pixel*Frame)                       : 0.047
Stream size                              : 603 MiB (74%)
Title                                    : www.movcr.com
Writing library                          : x264 core 120 r2164 da19765
Encoding settings                        : cabac=1 / ref=16 / deblock=1:-2:-1 / analyse=0x3:0x113 / me=esa / subme=6 / psy=1 / psy_rd=1.00:0.00 / mixed_ref=1 / me_range=16 / chroma_me=1 / trellis=2 / 8x8dct=1 / cqm=0 / deadzone=21,11 / fast_pskip=1 / chroma_qp_offset=-2 / threads=9 / sliced_threads=0 / nr=0 / decimate=0 / interlaced=0 / bluray_compat=0 / constrained_intra=0 / bframes=16 / b_pyramid=2 / b_adapt=1 / b_bias=0 / direct=3 / weightb=1 / open_gop=0 / weightp=2 / keyint=240 / keyint_min=23 / scenecut=40 / intra_refresh=0 / rc=2pass / mbtree=0 / bitrate=765 / ratetol=1.0 / qcomp=0.60 / qpmin=10 / qpmax=51 / qpstep=4 / cplxblur=20.0 / qblur=0.5 / ip_ratio=1.40 / pb_ratio=1.30 / aq=2:1.00
Language                                 : English
Default                                  : Yes
Forced                                   : No

Audio #1
ID                                       : 2
Format                                   : MPEG Audio
Format version                           : Version 1
Format profile                           : Layer 3
Format settings                          : Joint stereo
Codec ID                                 : A_MPEG/L3
Codec ID/Hint                            : MP3
Duration                                 : 1 h 50 min
Bit rate mode                            : Variable
Bit rate                                 : 96.0 kb/s
Channel(s)                               : 2 channels
Sampling rate                            : 48.0 kHz
Frame rate                               : 41.667 FPS (1152 SPF)
Compression mode                         : Lossy
Stream size                              : 74.7 MiB (9%)
Title                                    : www.movcr.com
Writing library                          : LAME3.99r
Encoding settings                        : -m j -V 4 -q 3 -lowpass 15.1 --abr 96
Language                                 : Tamil
Default                                  : Yes
Forced                                   : No

Audio #2
ID                                       : 3
Format                                   : MPEG Audio
Format version                           : Version 1
Format profile                           : Layer 3
Format settings                          : Joint stereo / MS Stereo
Codec ID                                 : A_MPEG/L3
Codec ID/Hint                            : MP3
Duration                                 : 1 h 50 min
Bit rate mode                            : Variable
Bit rate                                 : 96.0 kb/s
Channel(s)                               : 2 channels
Sampling rate                            : 48.0 kHz
Frame rate                               : 41.667 FPS (1152 SPF)
Compression mode                         : Lossy
Stream size                              : 73.0 MiB (9%)
Title                                    : www.movcr.com
Writing library                          : LAME3.99r
Encoding settings                        : -m j -V 4 -q 3 -lowpass 15.1 --abr 96
Language                                 : Hindi
Default                                  : No
Forced                                   : No

Audio #3
ID                                       : 4
Format                                   : MPEG Audio
Format version                           : Version 1
Format profile                           : Layer 3
Format settings                          : Joint stereo / MS Stereo
Codec ID                                 : A_MPEG/L3
Codec ID/Hint                            : MP3
Duration                                 : 1 h 50 min
Bit rate mode                            : Variable
Bit rate                                 : 80.0 kb/s
Channel(s)                               : 2 channels
Sampling rate                            : 48.0 kHz
Frame rate                               : 41.667 FPS (1152 SPF)
Compression mode                         : Lossy
Stream size                              : 64.6 MiB (8%)
Title                                    : www.movcr.com
Writing library                          : LAME3.99r
Encoding settings                        : -m j -V 4 -q 3 -lowpass 13.5 --abr 80
Language                                 : English
Default                                  : No
Forced                                   : No

Text
ID                                       : 5
Format                                   : UTF-8
Codec ID                                 : S_TEXT/UTF8
Codec ID/Info                            : UTF-8 Plain Text
Duration                                 : 1 h 44 min
Bit rate                                 : 41 b/s
Count of elements                        : 933
Stream size                              : 31.7 KiB (0%)
Title                                    : www.movcr.com
Language                                 : English
Default                                  : Yes
Forced                                   : No


 
 
 
 
 
 
 
 
 
Category:Movies > Hollywood Dub
Lang:Telugu
Total Size:5.25 GB
Info Hash:151be46292aa71c7d37aa0f04c147d8af411a82d
Added By:MAZE
Date Added:06-02-2018 17:26:16
Views:586
Hits:106

Download Torrent

Ratings:Not Yet Rated (Log in to rate it)


Tracker:
udp://tracker.openbittorrent.com:80/announce


File List: 


Comments

No comments still posted

Powered by 10 Hamsters v2-svn -|- Page Generated In 1.382416 secs.
-|- RSS FEED
Theme By: Nikkbu