[Login] or [Signup]
Login
Username:
Password:
[Signup]
[Recover Account]


Poll


You must be logged in to view polls



Torrent Details For "FANAA 2006 1080P BLURAY 10BIT X265 5.1 AAC HEVC NATTY"

FANAA 2006 1080P BLURAY 10BIT X265 5.1 AAC HEVC NATTY

Download this torrent | Magnet Download
Health:
Seeds: 1
Leechers: 1
Completed:
Last Checked: 01-08-2018 16:46:15
External Torrent
Update Stats
Download Magnet


Poster


iMDB
Imdb Picture Title: Fanaa
Year: 2006
Runtime: 168 minutes
Votes: 26057
Rating: 7.2/10
Language: Hindi, Indonesian
Country: India
All Genres: Drama, Romance, Thriller
Plot Outline: A sweet blind girl Zooni meets a flirty Rehan. She ignores her friends' warnings. It's her time to discover life. Is she making the right love choice?
Tagline: Destroyed in love...
Director: Kunal Kohli
Writing By: Shibani Bathija,Shibani Bathija,Shibani Bathija,
Produced By: Padam Bhushan,Aditya Chopra,Yash Chopra,Feliks Pastusiak,Sanjay Shivalkar,
Music: DJ Aqeel Salim Merchant Jatin Pandit Lalit Pandit
Cast:
Aamir Khan as Rehan Qadri
Kajol as Zooni Ali Beg
Rishi Kapoor as Zulfikar Ali Beg
Tabu as Dr. Malini Tyagi
Kiron Kher as Nafisa Ali Beg
Lara Dutta as Zeenat
Shiney Ahuja as Major Suraj Ahuja
Satish Shah as Colonel Maan Singh
Lillete Dubey as Helen - Zooni's Instructor
Sharat Saxena as Susheel Rawat
Trailers:
Theatrical Trailer


Watch-Free-HD     Download

Details
Name:FANAA 2006 1080P BLURAY 10BIT X265 5.1 AAC HEVC NATTY
Description:
General
Complete name : Fanaa 2006 1080p Bluray 10bit x265 5.1 AAC HEVC Natty.mkv
Format : Matroska
Format version : Version 4 / Version 2
File size : 4.15 GiB
Duration : 2 h 48 min
Overall bit rate : 3 518 kb/s
Encoded date : UTC 2017-09-04 08:16:07
Writing application : mkvmerge v15.0.0 ('Duel with the Devil') 64-bit
Writing library : libebml v1.3.5 + libmatroska v1.4.5

Video
ID : 1
Format : HEVC
Format/Info : High Efficiency Video Coding
Format profile : Main [email protected]@Main
Codec ID : V_MPEGH/ISO/HEVC
Duration : 2 h 48 min
Bit rate : 3 002 kb/s
Width : 1 920 pixels
Height : 820 pixels
Display aspect ratio : 2.35:1
Frame rate mode : Constant
Frame rate : 24.000 FPS
Color space : YUV
Chroma subsampling : 4:2:0
Bit depth : 10 bits
Bits/(Pixel*Frame) : 0.079
Stream size : 3.54 GiB (85%)
Default : Yes
Forced : No
Color range : Full
Color primaries : BT.709
Transfer characteristics : BT.709
Matrix coefficients : BT.709

Audio
ID : 2
Format : AAC
Format/Info : Advanced Audio Codec
Format profile : LC
Codec ID : A_AAC
Duration : 2 h 48 min
Bit rate : 487 kb/s
Channel(s) : 6 channels
Channel positions : Front: L C R, Side: L R, LFE
Sampling rate : 48.0 kHz
Frame rate : 46.875 FPS (1024 SPF)
Compression mode : Lossy
Delay relative to video : 20 ms
Stream size : 588 MiB (14%)
Language : Hindi
Default : No
Forced : No

Text #1
ID : 3
Format : PGS
Muxing mode : zlib
Codec ID : S_HDMV/PGS
Codec ID/Info : Picture based subtitle format used on BDs/HD-DVDs
Duration : 2 h 45 min
Bit rate : 26.7 kb/s
Count of elements : 3546
Stream size : 31.5 MiB (1%)
Language : English
Default : Yes
Forced : No

Text #2
ID : 4
Format : PGS
Muxing mode : zlib
Codec ID : S_HDMV/PGS
Codec ID/Info : Picture based subtitle format used on BDs/HD-DVDs
Duration : 2 h 45 min
Bit rate : 13.5 kb/s
Count of elements : 3504
Stream size : 16.0 MiB (0%)
Language : Arabic
Default : No
Forced : No

Text #3
ID : 5
Format : PGS
Muxing mode : zlib
Codec ID : S_HDMV/PGS
Codec ID/Info : Picture based subtitle format used on BDs/HD-DVDs
Duration : 2 h 45 min
Bit rate : 47.5 kb/s
Count of elements : 4192
Stream size : 56.1 MiB (1%)
Language : Tamil
Default : No
Forced : No

Text #4
ID : 6
Format : PGS
Muxing mode : zlib
Codec ID : S_HDMV/PGS
Codec ID/Info : Picture based subtitle format used on BDs/HD-DVDs
Duration : 2 h 45 min
Bit rate : 23.8 kb/s
Count of elements : 3512
Stream size : 28.1 MiB (1%)
Language : Telugu
Default : No
Forced : No






Category:Movies > 1080P Bluray
Lang:Hindi
Total Size:4.89 GB
Info Hash:1c8ab6b6a7cb6ee15b932a0e658c4cb46dc6649f
Added By:14021998
Date Added:06-02-2018 02:30:09
Views:316
Hits:57

Download Torrent

Ratings:Not Yet Rated (Log in to rate it)


Tracker:
http://torrent.deshihd.com:2710/97cb9e6474de9a6d9fbf046b55c9a81f/announce


File List: 


Comments

No comments still posted

Powered by 10 Hamsters v2-svn -|- Page Generated In 0.080993 secs.
-|- RSS FEED
Theme By: Nikkbu