[Login] or [Signup]
Login
Username:
Password:
[Signup]
[Recover Account]


Poll


You must be logged in to view polls



Torrent Details For "Breathe S01E05 Hindi 720p WEB-DL x264 AAC Esub ~Katyayan~"

Breathe S01E05 Hindi 720p WEB-DL x264 AAC Esub ~Katyayan~

Download this torrent | Magnet Download
Health:
Seeds: 0
Leechers: 82
Completed: 156 
Last Checked: 08-02-2018 05:38:00
External Torrent
Update Stats
Download Magnet


Poster


iMDB
Imdb Picture Title: Breathe
Year: 2018
Runtime: 45 minutes
Votes: 220
Rating: 9.2/10
Language: Hindi, Tamil, Telugu
Country: India
All Genres: Drama, Thriller
Plot Outline: Breathe is an Indian drama that explores the lives of ordinary men faced with extraordinary circumstances. Kabir (Sadh), a brilliant but non-conventional officer of the Crime Branch, puts ...
Director: Mayank Sharma
Writing By: Abhijeet Deshpande,Mayank Sharma,Vikram Tuli,Vikram Tuli,
Produced By: Nidhi Agarwal,Shivaji Dasgupta,Rahul Gandhi,Vikram Malhotra,Sanjay Mehta,Rahul Gandhi,
Cast:
Madhavan as Danny Mascarenhas 8 episodes, 2018
Amit Sadh as Kabir Sawant 8 episodes, 2018
Sapna Pabbi as Ria Ganguly 8 episodes, 2018
Shriswara as Dr. Aruna Sharma 8 episodes, 2018
Atharva Vishwakarma as Josh Mascarenhas 8 episodes, 2018
Nina Kulkarni as Juliet Mascarenhas 8 episodes, 2018
Hrishikesh Joshi as Prakash Kamble 7 episodes, 2018
Kali Prasad Mukherjee as Shankar Patil 6 episodes, 2018
Ajit Bhure as Nilesh Mohite 5 episodes, 2018
Nandkumar Sawant as Cop in Police Station 5 episodes, 2018
Trailers:
Official "Breathe" Teaser
Official "Breathe" Trailer


Watch-Free-HD     Download

Details
Name:Breathe S01E05 Hindi 720p WEB-DL x264 AAC Esub ~Katyayan~
Description:
Breathe S01E05 Hindi 720p WEB-DL x264 AAC Esub ~Katyayan~



~:::General:::~

Format                                   : Matroska
Format version                           : Version 4 / Version 2
File size                                : 391 MiB
Duration                                 : 38 min 58 s
Overall bit rate                         : 1 402 kb/s
Movie name                               : Breathe S01E05 Hindi 720p WEB-DL x264 AAC Esub ~Katyayan~
Encoded date                             : UTC 2018-02-02 07:17:09
Writing application                      : mkvmerge v14.0.0 ('Flow') 32bit
Writing library                          : libebml v1.3.4 + libmatroska v1.4.5

~:::Video:::~

ID                                       : 1
Format                                   : AVC
Format/Info                              : Advanced Video Codec
Format profile                           : [email protected]
Format settings, CABAC                   : Yes
Format settings, ReFrames                : 4 frames
Codec ID                                 : V_MPEG4/ISO/AVC
Duration                                 : 38 min 57 s
Bit rate                                 : 1 303 kb/s
Width                                    : 1 280 pixels
Height                                   : 720 pixels
Display aspect ratio                     : 16:9
Frame rate mode                          : Variable
Frame rate                               : 28.562 FPS
Color space                              : YUV
Chroma subsampling                       : 4:2:0
Bit depth                                : 8 bits
Scan type                                : Progressive
Bits/(Pixel*Frame)                       : 0.050
Stream size                              : 352 MiB (90%)
Title                                    : Breathe S01E05 Hindi 720p WEB-DL x264 AAC Esub ~Katyayan~
Writing library                          : x264 core 112
Encoding settings                        : cabac=1 / ref=2 / deblock=1:0:0 / analyse=0x1:0x111 / me=hex / subme=6 / psy=1 / psy_rd=1.00:0.00 / mixed_ref=0 / me_range=16 / chroma_me=1 / trellis=0 / 8x8dct=0 / cqm=0 / deadzone=21,11 / fast_pskip=1 / chroma_qp_offset=-2 / threads=12 / sliced_threads=0 / nr=0 / decimate=1 / interlaced=0 / constrained_intra=0 / bframes=2 / b_pyramid=2 / b_adapt=1 / b_bias=0 / direct=1 / weightb=0 / open_gop=0 / weightp=2 / keyint=300 / keyint_min=30 / scenecut=40 / intra_refresh=0 / rc_lookahead=40 / rc=abr / mbtree=1 / bitrate=1303 / ratetol=1.0 / qcomp=0.60 / qpmin=3 / qpmax=51 / qpstep=4 / ip_ratio=1.40 / aq=1:1.00
Language                                 : English
Default                                  : Yes
Forced                                   : No
Color range                              : Limited
Color primaries                          : BT.709
Transfer characteristics                 : BT.709
Matrix coefficients                      : BT.709

~:::Audio:::~

ID                                       : 2
Format                                   : AAC
Format/Info                              : Advanced Audio Codec
Format profile                           : LC
Codec ID                                 : A_AAC
Duration                                 : 38 min 58 s
Bit rate                                 : 132 kb/s
Channel(s)                               : 2 channels
Channel positions                        : Front: L R
Sampling rate                            : 44.1 kHz
Frame rate                               : 43.066 FPS (1024 spf)
Compression mode                         : Lossy
Stream size                              : 37.5 MiB (10%)
Title                                    : ~Katyayan~
Language                                 : Hindi
Default                                  : Yes
Forced                                   : Yes

~:::Text:::~

ID                                       : 3
Format                                   : UTF-8
Codec ID                                 : S_TEXT/UTF8
Codec ID/Info                            : UTF-8 Plain Text
Duration                                 : 35 min 2 s
Bit rate                                 : 14 b/s
Count of elements                        : 3
Stream size                              : 3.76 KiB (0%)
Title                                    : ~Katyayan~
Language                                 : English
Default                                  : Yes
Forced                                   : Yes

                 
Category:TV > Indian
Lang:Hindi
Total Size:390.91 MB
Info Hash:141f38001b1a74d55dd1d34fbc21aca71fa1073d
Added By:Shrawankk
Date Added:02-02-2018 07:52:04
Views:638
Hits:149

Download Torrent

Ratings:Not Yet Rated (Log in to rate it)


Tracker:
http://bigfoot1942.sektori.org:6969/announce

This Torrent also has backup trackers
URLSeedersLeechersCompleted
http://bigfoot1942.sektori.org:6969/announce000
http://tracker2.wasabii.com.tw:6969/announce000
http://tracker.opentrackr.org/announce000
http://announce.torrentsmd.com:6969/announce000
http://tracker.trackerfix.com/announce000
http://tracker.opentrackr.org/announce000


File List: 


Comments

No comments still posted

Powered by 10 Hamsters v2-svn -|- Page Generated In 1.096062 secs.
-|- RSS FEED
Theme By: Nikkbu