[Login] or [Signup]
Login
Username:
Password:
[Signup]
[Recover Account]


Poll


You must be logged in to view polls



Torrent Details For "Dam999 (2011) 720p BluRay x264 ESubs Hindi Dubbed -1.1GB -MovCr"

Dam999 (2011) 720p BluRay x264 ESubs Hindi Dubbed -1.1GB -MovCr

Download this torrent | Magnet Download
Health:
Seeds: 0
Leechers: 0
Completed:
Last Checked: 11-11-2018 06:51:07
External Torrent
Update Stats
Download Magnet


Poster


iMDB
Imdb Picture Title: Dam999
Year: 2011
Runtime: 108 minutes
Votes: 865
Rating: 3.7/10
Language: English, Hindi, Malayalam
Country: India, United Arab Emirates, Singapore
All Genres: Adventure, Drama, Sci-Fi, Thriller
Plot Outline: After many years two mariners return to homeland with the hope of a new beginning, little did they know about a disaster that would change their destiny.
Tagline: A tribute to the 1975 Banqiao Dam disaster in china that claimed 250,000 innocent lives
Director: Sohan Roy
Writing By: Sohan Roy,Rob Tobin,
Produced By: Uzma Xina Kang,Prabhiraj Nadarajan,Vinod Unnithan,
Music: Ouseppachan
Cast:
Vinay Rai as
Joshua Fredric Smith as Captain Frederick Brown
Megha Burman as Raziya
Linda Arsenio as Sandra
Rajit Kapoor as Shankaran
Vimala Raman as Meera
Ashish Vidyarthi as Mayor Durai
Jaala Pickering as Maria
Jineet Rath as Samuel
Harry Key as Mark
Trailers:
DAM999 3D Official Trailer #1
DAM999 Theatrical Release Trailer - India (Warner Bros.)


Watch-Free-HD     Download

Details
Name:Dam999 (2011) 720p BluRay x264 ESubs Hindi Dubbed -1.1GB -MovCr
Description:
Dam999 (2011) 720p BluRay x264 ESubs Hindi Dubbed -MovCr

Visit us :- www.MovCr.com



Format                                   : Matroska
Format version                           : Version 4 / Version 2
File size                                : 1.15 GiB
Duration                                 : 1 h 50 min
Overall bit rate                         : 1 489 kb/s
Movie name                               : www.MovCr.Com
Encoded date                             : UTC 2018-01-31 12:17:11
Writing application                      : mkvmerge v9.5.0 ('Quiet Fire') 64bit
Writing library                          : libebml v1.3.4 + libmatroska v1.4.5

Video
ID                                       : 1
Format                                   : AVC
Format/Info                              : Advanced Video Codec
Format profile                           : [email protected]
Format settings, CABAC                   : Yes
Format settings, ReFrames                : 4 frames
Codec ID                                 : V_MPEG4/ISO/AVC
Duration                                 : 1 h 50 min
Bit rate                                 : 1 391 kb/s
Width                                    : 1 280 pixels
Height                                   : 544 pixels
Display aspect ratio                     : 2.35:1
Frame rate mode                          : Constant
Frame rate                               : 23.976 (24000/1001) FPS
Color space                              : YUV
Chroma subsampling                       : 4:2:0
Bit depth                                : 8 bits
Scan type                                : Progressive
Bits/(Pixel*Frame)                       : 0.083
Stream size                              : 1.07 GiB (93%)
Title                                    : www.MovCr.Com
Writing library                          : x264 core 148 r2744 b97ae06
Encoding settings                        : cabac=1 / ref=3 / deblock=1:0:0 / analyse=0x3:0x113 / me=hex / subme=7 / psy=1 / psy_rd=1.00:0.00 / mixed_ref=1 / me_range=16 / chroma_me=1 / trellis=1 / 8x8dct=1 / cqm=0 / deadzone=21,11 / fast_pskip=1 / chroma_qp_offset=-2 / threads=17 / lookahead_threads=2 / sliced_threads=0 / nr=0 / decimate=1 / interlaced=0 / bluray_compat=0 / constrained_intra=0 / bframes=3 / b_pyramid=2 / b_adapt=1 / b_bias=0 / direct=1 / weightb=1 / open_gop=0 / weightp=2 / keyint=240 / keyint_min=23 / scenecut=40 / intra_refresh=0 / rc_lookahead=40 / rc=2pass / mbtree=1 / bitrate=1391 / ratetol=1.0 / qcomp=0.60 / qpmin=0 / qpmax=69 / qpstep=4 / cplxblur=20.0 / qblur=0.5 / ip_ratio=1.40 / aq=1:1.00
Language                                 : English
Default                                  : Yes
Forced                                   : No

Audio
ID                                       : 2
Format                                   : MPEG Audio
Format version                           : Version 1
Format profile                           : Layer 3
Mode                                     : Joint stereo
Mode extension                           : MS Stereo
Codec ID                                 : A_MPEG/L3
Codec ID/Hint                            : MP3
Duration                                 : 1 h 50 min
Bit rate mode                            : Constant
Bit rate                                 : 96.0 kb/s
Channel(s)                               : 2 channels
Sampling rate                            : 48.0 kHz
Frame rate                               : 41.667 FPS (1152 spf)
Compression mode                         : Lossy
Stream size                              : 75.7 MiB (6%)
Title                                    : www.MovCr.Com
Writing library                          : LAME3.99.5
Language                                 : Hindi
Default                                  : No
Forced                                   : No

Text
ID                                       : 3
Format                                   : UTF-8
Codec ID                                 : S_TEXT/UTF8
Codec ID/Info                            : UTF-8 Plain Text
Duration                                 : 1 h 46 min
Bit rate                                 : 45 b/s
Count of elements                        : 1070
Stream size                              : 35.7 KiB (0%)
Title                                    : www.MovCr.Com
Language                                 : English
Default                                  : No
Forced                                   : No

 
 
 
 
 
Category:Movies > South Dub
Lang:Hindi
Total Size:1.15 GB
Info Hash:1cc7129c5a421d7ed4981c6561b0184f74a1c9f8
Added By:TeamTNT
Date Added:31-01-2018 12:33:37
Views:1,591
Hits:248

Download Torrent

Ratings:Not Yet Rated (Log in to rate it)


Tracker:
udp://tracker.leechers-paradise.org:6969/announce


File List: 


Comments

<< Previous      Next >>
1 - 1

[Report] Posted: 09-02-2018 at 05:01:23
Taimoordar0022



Uploaded: 0.00 B
Downloaded: 0.00 B
Ratio: ---

its not hindi dubbed its English dubbed ll be reported  :warn

1 - 1
<< Previous      Next >>


Powered by 10 Hamsters v2-svn -|- Page Generated In 0.675742 secs.
-|- RSS FEED
Theme By: Nikkbu