[Login] or [Signup]
Login
Username:
Password:
[Signup]
[Recover Account]


Poll


You must be logged in to view polls



Torrent Details For "Jab Pyaar Kisise Hota Hai (1998) HDRip 1080p x264 AAC { TaRa }.mkv"

Jab Pyaar Kisise Hota Hai (1998) HDRip 1080p x264 AAC { TaRa }.mkv

Download this torrent | Magnet Download
Health:
Seeds: 0
Leechers: 12
Completed:
Last Checked: 13-11-2018 04:56:34
External Torrent
Update Stats
Download Magnet


Poster


Watch-Free-HD     Download

Details
Name:Jab Pyaar Kisise Hota Hai (1998) HDRip 1080p x264 AAC { TaRa }.mkv
Description:

Quote:

Jab Pyaar Kisise Hota Hai (1998) HDRip 1080p x264 AAC { TaRa }.mkv


===================================================================
General
Complete name               : Jab Pyaar Kisise Hota Hai (1998) HDRip 1080p x264 AAC { TaRa }.mkv
Format                      : Matroska
Format version              : Version 4 / Version 2
File size                   : 1.25 GiB
Duration                    : 2 h 29 min
Overall bit rate mode       : Variable
Overall bit rate            : 1 200 kb/s
===================================================================
Video
ID                          : 1
Format                      : AVC
Format/Info                 : Advanced Video Codec
Format profile              : [email protected]
Format settings, CABAC      : Yes
Format settings, ReFrames   : 3 frames
Codec ID                    : V_MPEG4/ISO/AVC
Duration                    : 2 h 29 min
Bit rate mode               : Variable
Bit rate                    : 1 102 kb/s
Maximum bit rate            : 14.0 Mb/s
Width                       : 1 920 pixels
Height                      : 816 pixels
Display aspect ratio        : 2.35:1
Frame rate mode             : Constant
Frame rate                  : 23.976 (24000/1001) FPS
Color space                 : YUV
Chroma subsampling          : 4:2:0
Bit depth                   : 8 bits
Scan type                   : Progressive
Bits/(Pixel*Frame)          : 0.029
Stream size                 : 1.15 GiB (92%)
Title                       : .....::::: TaRa :::::.....
Language                    : Hindi
Default                     : Yes
Forced                      : No
===================================================================
Audio
ID                          : 2
Format                      : AAC
Format/Info                 : Advanced Audio Codec
Format profile              : LC
Codec ID                    : A_AAC
Duration                    : 2 h 29 min
Bit rate                    : 96.0 kb/s
Channel(s)                  : 2 channels
Channel positions           : Front: L R
Sampling rate               : 48.0 kHz
Frame rate                  : 46.875 FPS (1024 spf)
Compression mode            : Lossy
Delay relative to video     : 9 ms
Stream size                 : 103 MiB (8%)
Title                       : .....::::: TaRa :::::.....
Language                    : Hindi
Default                     : Yes
Forced                      : No
===================================================================




























Category:Movies > Bollywood
Lang:Hindi
Total Size:1.26 GB
Info Hash:dfd6414709d0987845d7e2e8c0cae054123a4bf7
Added By:SkTaRa
Date Added:05-04-2017 02:58:23
Views:836
Hits:165

Download Torrent

Ratings:Not Yet Rated (Log in to rate it)


Tracker:
udp://tracker.openbittorrent.com:80/announce

This Torrent also has backup trackers
URLSeedersLeechersCompleted
http://www.skyts.net:6969/announce000
http://www.opentrackr.org/announce000
http://mgtracker.org:2710/announce000
http://5.79.83.193:2710/announce001
http://109.121.134.121:1337/announce000


File List: 


Comments

No comments still posted

Powered by 10 Hamsters v2-svn -|- Page Generated In 4.429124 secs.
-|- RSS FEED
Theme By: Nikkbu