[Login] or [Signup]
Login
Username:
Password:
[Signup]
[Recover Account]


Poll


You must be logged in to view polls



Torrent Details For "Kahin Pyaar Na Ho Jaaye (2000) HDRip 720p x264 AAC { TaRa }.mkv"

Kahin Pyaar Na Ho Jaaye (2000) HDRip 720p x264 AAC { TaRa }.mkv

Download this torrent | Magnet Download
Health:
Seeds: 0
Leechers: 0
Completed:
Last Checked: 18-11-2018 04:08:29
External Torrent
Update Stats
Download Magnet


Poster


Watch-Free-HD     Download

Details
Name:Kahin Pyaar Na Ho Jaaye (2000) HDRip 720p x264 AAC { TaRa }.mkv
Description:

Quote:

Kahin Pyaar Na Ho Jaaye (2000) HDRip 720p x264 AAC { TaRa }.mkv


===================================================================
General
Complete name               : Kahin Pyaar Na Ho Jaaye (2000) HDRip 720p x264 AAC { TaRa }.mkv
Format                      : Matroska
Format version              : Version 4 / Version 2
File size                   : 1 010 MiB
Duration                    : 2 h 38 min
Overall bit rate mode       : Variable
Overall bit rate            : 890 kb/s
===================================================================
Video
ID                          : 1
Format                      : AVC
Format/Info                 : Advanced Video Codec
Format profile              : [email protected]
Format settings, CABAC      : Yes
Format settings, ReFrames   : 3 frames
Codec ID                    : V_MPEG4/ISO/AVC
Duration                    : 2 h 38 min
Bit rate mode               : Variable
Bit rate                    : 792 kb/s
Maximum bit rate            : 14.0 Mb/s
Width                       : 1 272 pixels
Height                      : 544 pixels
Display aspect ratio        : 2.35:1
Frame rate mode             : Constant
Frame rate                  : 23.976 (24000/1001) FPS
Color space                 : YUV
Chroma subsampling          : 4:2:0
Bit depth                   : 8 bits
Scan type                   : Progressive
Bits/(Pixel*Frame)          : 0.048
Stream size                 : 899 MiB (89%)
Title                       : .....::::: TaRa :::::.....
Language                    : Hindi
Default                     : Yes
Forced                      : No
===================================================================
Audio
ID                          : 2
Format                      : AAC
Format/Info                 : Advanced Audio Codec
Format profile              : LC
Codec ID                    : A_AAC
Duration                    : 2 h 38 min
Bit rate                    : 96.0 kb/s
Channel(s)                  : 2 channels
Channel positions           : Front: L R
Sampling rate               : 48.0 kHz
Frame rate                  : 46.875 FPS (1024 spf)
Compression mode            : Lossy
Delay relative to video     : 9 ms
Stream size                 : 109 MiB (11%)
Title                       : .....::::: TaRa :::::.....
Language                    : Hindi
Default                     : Yes
Forced                      : No
===================================================================


























Category:Movies > Bollywood
Lang:Hindi
Total Size:1,016.06 MB
Info Hash:cb7d87cac6ebe574737a44ed3346c56df0539e28
Added By:SkTaRa
Date Added:05-04-2017 02:55:56
Views:519
Hits:138

Download Torrent

Ratings:Not Yet Rated (Log in to rate it)


Tracker:
udp://tracker.openbittorrent.com:80/announce

This Torrent also has backup trackers
URLSeedersLeechersCompleted
http://www.skyts.net:6969/announce000
http://www.opentrackr.org/announce000
http://mgtracker.org:2710/announce000
http://5.79.83.193:2710/announce000
http://109.121.134.121:1337/announce000


File List: 


Comments

No comments still posted

Powered by 10 Hamsters v2-svn -|- Page Generated In 3.795055 secs.
-|- RSS FEED
Theme By: Nikkbu