[Login] or [Signup]
Login
Username:
Password:
[Signup]
[Recover Account]


Poll


You must be logged in to view polls



Torrent Details For "Super RakShak 2018 Hindi Dubbed 720p SDRip [Logo Removed] - Team MoviesBay"

Super RakShak 2018 Hindi Dubbed 720p SDRip [Logo Removed] - Team MoviesBay

Download this torrent | Magnet Download
Health:
Seeds: 0
Leechers: 8
Completed:
Last Checked: 07-09-2018 17:38:06
External Torrent
Update Stats
Download Magnet


Poster


Watch-Free-HD     Download

Details
Name:Super RakShak 2018 Hindi Dubbed 720p SDRip [Logo Removed] - Team MoviesBay
Description:



General
Unique ID                                : 203318598382237139016279885579595542326 (0x98F5BCD916D9F034904C2C4BB9ABEF36)
Format                                   : Matroska
Format version                           : Version 4 / Version 2
File size                                : 901 MiB
Duration                                 : 1 h 52 min
Overall bit rate                         : 1 120 kb/s
Encoded date                             : UTC 2018-01-19 02:11:52
Writing application                      : mkvmerge v18.0.0 ('Apricity') 64-bit
Writing library                          : libebml v1.3.5 + libmatroska v1.4.8

Video
ID                                       : 1
Format                                   : AVC
Format/Info                              : Advanced Video Codec
Format profile                           : [email protected]
Format settings, CABAC                   : No
Format settings, RefFrames               : 1 frame
Format settings, GOP                     : M=1, N=30
Codec ID                                 : V_MPEG4/ISO/AVC
Duration                                 : 1 h 52 min
Bit rate                                 : 990 kb/s
Width                                    : 1 280 pixels
Height                                   : 720 pixels
Display aspect ratio                     : 16:9
Frame rate mode                          : Constant
Frame rate                               : 23.976 (23976/1000) FPS
Color space                              : YUV
Chroma subsampling                       : 4:2:0
Bit depth                                : 8 bits
Scan type                                : Progressive
Bits/(Pixel*Frame)                       : 0.045
Stream size                              : 796 MiB (88%)
Default                                  : Yes
Forced                                   : No

Audio
ID                                       : 2
Format                                   : AAC
Format/Info                              : Advanced Audio Codec
Format profile                           : LC
Codec ID                                 : A_AAC
Duration                                 : 1 h 52 min
Bit rate                                 : 128 kb/s
Channel(s)                               : 2 channels
Channel positions                        : Front: L R
Sampling rate                            : 44.1 kHz
Frame rate                               : 43.066 FPS (1024 SPF)
Compression mode                         : Lossy
Delay relative to video                  : 21 ms
Stream size                              : 103 MiB (11%)
Language                                 : Hindi
Default                                  : Yes
Forced                                   : No




Category:Movies > South Dub
Lang:Hindi
Total Size:901.42 MB
Info Hash:ffa06b5ecb3e1023120b49e868258dc39b8c97d7
Added By:sultaan
Date Added:19-01-2018 07:12:40
Views:2,116
Hits:312

Download Torrent

Ratings:Not Yet Rated (Log in to rate it)


Tracker:
udp://tracker.openbittorrent.com:80/announce


File List: 


Comments

No comments still posted

Powered by 10 Hamsters v2-svn -|- Page Generated In 0.326023 secs.
-|- RSS FEED
Theme By: Nikkbu