[Login] or [Signup]
Login
Username:
Password:
[Signup]
[Recover Account]


Poll


You must be logged in to view polls



Torrent Details For "Bailaras 2017 720p HD Punjabi GOPISAHI"

Bailaras 2017 720p HD Punjabi GOPISAHI

Download this torrent | Magnet Download
Health:
Seeds: 0
Leechers: 3
Completed: 22 
Last Checked: 02-11-2018 12:34:21
External Torrent
Update Stats
Download Magnet


Poster


iMDB
Imdb Picture Title: Bailaras
Year: 2017
Votes: 9
Rating: 7.7/10
Language: Panjabi
Country: India
All Genres: Comedy
Director: Ksshitij Chaudhary
Writing By: Jass Grewal,
Produced By: Binnu Dhillon,
Cast:
Karamjit Anmol as
Hobby Dhaliwal as
Binnu Dhillon as Jagga
Nirmal Rishi as
Prachi Tehlan as Sonali


Watch-Free-HD     Download

Details
Name:Bailaras 2017 720p HD Punjabi GOPISAHI
Description:

Format                         : Matroska
Format version                 : Version 4 / Version 2
File size                      : 501 MiB
Duration                       : 2 h 12 min
Overall bit rate               : 527 kb/s
Movie name                     : Bailarasn 2017 GOPISAHI

Video
Format                         : AVC
Codec ID                       : V_MPEG4/ISO/AVC
Duration                       : 2 h 12 min
Bit rate                       : 450 kb/s
Width                          : 1 280 pixels
Height                         : 544 pixels
Display aspect ratio           : 2.35:1
Frame rate mode                : Constant
Frame rate                     : 24.000 FPS
Stream size                    : 427 MiB (85%)
Writing library                : x264 core 148 r2708 86b7198

Audio
Format                         : AAC
Duration                       : 2 h 12 min
Bit rate                       : 75.1 kb/s
Channel(s)                     : 6 channels
Channel positions              : Front: L C R, Side: L R, LFE
Sampling rate                  : 44.1 kHz
Frame rate                     : 43.066 FPS (1024 SPF)
Compression mode               : Lossy
Stream size                    : 71.3 MiB (14%)
Language                       : Panjabi


Category:Movies > Punjabi
Lang:Punjabi
Total Size:500.55 MB
Info Hash:d5d2f6bd3c8cd1c8e6a0d5fa80cdd7259e7cc799
Added By:Unknown
Date Added:15-01-2018 15:40:12
Views:1,998
Hits:543

Download Torrent

Ratings:Not Yet Rated (Log in to rate it)


Tracker:
http://share.camoe.cn:8080/announce

This Torrent also has backup trackers
URLSeedersLeechersCompleted
http://share.camoe.cn:8080/announce000
http://retracker.bashtel.ru:80/announce000
http://retracker.spark-rostov.ru:80/announce000
http://tracker.city9x.com:2710/announce20517
http://0d.kebhana.mx:443/announce100
http://tr.fuuko.net:443/announce455361
http://tr.back.re:443/announce455361
http://open.acgnxtracker.com:443/announce10628
http://bt.dl1234.com:80/announce22317
http://evening-badlands-6215.herokuapp.com:443/announce000
http://linetorrent.xyz:443/announce000
http://torrentsmd.com:8080/announce200
http://torrentsmd.eu:8080/announce200
http://zer0day.000webhostapp.com:443/announce000
http://p4p.arenabg.com:1337/announce2274
http://163.172.180.68:80/announce000
http://open.kickasstracker.com/announce410
http://retracker.mgts.by:80/announce10135
http://tracker.torrentyorg.pl:80/announce004


File List: 


Comments

No comments still posted

Powered by 10 Hamsters v2-svn -|- Page Generated In 0.329744 secs.
-|- RSS FEED
Theme By: Nikkbu